<?xml version="1.0" standalone="no"?>
<!DOCTYPE svg PUBLIC "-//W3C//DTD SVG 1.1//EN" "http://www.w3.org/Graphics/SVG/1.1/DTD/svg11.dtd" >
<svg xmlns="http://www.w3.org/2000/svg">
<metadata></metadata>
<defs>
<font id="thaisans_neueregular" horiz-adv-x="0" >
<font-face units-per-em="2048" ascent="1542" descent="-506" />
<missing-glyph horiz-adv-x="659" />
<glyph unicode="&#x3b;&#x3b;arm&#x3b;&#x3b;" horiz-adv-x="2138" d="M76 1270v82h327v164q-23 0 -45 13t-39.5 35.5t-27.5 52.5t-10 62q0 37 14 67t36.5 51.5t52.5 33.5t60 12q78 0 121 -43t43 -121q0 -27 -8 -55.5t-23.5 -52t-38 -38.5t-53.5 -17v-164h328v-82h-328v-246l220 -492h-82l-179 410l-178 -410h-82l219 492v246h-327zM158 0 q0 23 8 48.5t25.5 47t44 34.5t65.5 13q61 0 102 -41t41 -102q0 -6 -1 -19.5t-6 -30t-16 -33.5t-32 -32l45 -209l113 226h41l112 -226l72 426h102l-32 -170l22 41l133 29q0 106 12.5 181t37 120t63.5 65.5t92 20.5q61 0 92 -41t31 -102h-41q0 31 -15.5 56.5t-45.5 25.5 q-78 0 -111 -76t-33 -229l150 36l18 -73l-168 -43v-82q0 -123 -6 -224.5t-29.5 -175t-68.5 -113.5t-121 -40q-61 0 -102 30.5t-41 92.5h41q0 -31 25.5 -46.5t56.5 -15.5q61 0 94 37t48 101.5t18 154.5t3 199v61l-163 -41l-70 -368h-53l-144 307l-143 -307h-53l-66 327l37 25 q-4 -2 -12 -2q-8 -2 -29 -2q-18 0 -44 7t-47.5 23.5t-36.5 43t-15 65.5zM240 0q0 -23 15 -40t46 -17q61 0 61 57q0 61 -61 61q-31 0 -46 -18t-15 -43zM362 1679q0 -31 17.5 -56.5t64.5 -25.5t64.5 26t17.5 56q0 47 -25.5 64.5t-56.5 17.5t-56.5 -17.5t-25.5 -64.5zM834 532 l466 1270h353l409 -1270h-327l-125 390h-551l-144 -390h-81zM1100 1024h475l-223 696zM1364 41l41 205h61l-61 -205h-41zM1421 1741l27 -80l47 80h-74zM1462 1624l17 -57l106 174h-51zM1466 41l41 205h62l-62 -205h-41zM1493 1528l23 -74l114 193l-22 69zM1536 1393l12 -41 l115 190l-12 41zM1565 1303l12 -41l115 190l-13 41zM1591 -201q0 76 18.5 145.5t51.5 123t78 86t98 32.5q109 0 167 -74.5t58 -209.5q0 -201 -71.5 -295t-194.5 -94q-39 0 -76 16t-65.5 50t-46 88t-17.5 132zM1595 1208l13 -41l114 189l-14 43zM1622 1126l14 -49l115 191 l-14 49zM1651 1032l14 -41l113 191l-11 41zM1673 -160l287 123q-4 39 -16 70q-12 27 -36 48t-71 21q-53 0 -86 -41t-49 -90q-20 -57 -29 -131zM1673 -262q0 -23 7.5 -48.5t22.5 -47t38.5 -35t54.5 -13.5q61 0 94 41t49 93q18 57 21 133zM1679 940l13 -33l114 187l-10 39z M1706 860l12 -33l115 189l-12 35zM1733 778l12 -39l117 187l-13 43zM1759 696l15 -47l114 193l-14 45zM1786 614l6 -20h27l96 162l-14 49zM1851 594h41l50 84l-15 41zM1925 594h41l-14 45z" />
<glyph unicode="&#xd;" horiz-adv-x="659" />
<glyph unicode=" "  horiz-adv-x="659" />
<glyph unicode="&#x09;" horiz-adv-x="659" />
<glyph unicode="&#xa0;" horiz-adv-x="659" />
<glyph unicode="!" horiz-adv-x="274" d="M76 0v123h123v-123h-123zM76 246v819h123v-819h-123z" />
<glyph unicode="&#x22;" horiz-adv-x="499" d="M76 737v328h123v-328h-123zM301 737v328h123v-328h-123z" />
<glyph unicode="#" horiz-adv-x="1118" d="M76 301l26 100h156l57 215h-155l24 101h158l78 287h119l-78 -287h287l77 287h119l-78 -287h176l-26 -101h-176l-58 -215h176l-28 -100h-174l-80 -301h-119l80 301h-287l-80 -301h-118l79 301h-155zM377 401h287l57 215h-287z" />
<glyph unicode="$" horiz-adv-x="806" d="M76 61v103q41 -23 90 -41q41 -16 95 -28.5t114 -12.5q113 0 173 54t60 151q0 70 -40 109.5t-98 65t-128 46t-128 51.5t-98 82t-40 137q0 53 23.5 96.5t62.5 74t89 48t103 23.5v156h117v-156q55 -4 95 -13.5t69 -19.5q33 -10 55 -24v-103q-33 16 -74 31q-37 10 -89 20.5 t-124 10.5q-35 0 -71.5 -10.5t-66 -29t-48 -45t-18.5 -59.5q0 -57 40 -91t98 -57.5t128 -46t128 -57t98 -91t40 -148.5q0 -53 -12 -102.5t-41 -89.5t-80 -68.5t-127 -36.5v-158h-117v152q-70 2 -122 14t-87 27q-41 16 -69 36z" />
<glyph unicode="%" horiz-adv-x="1173" d="M76 854q0 145 56 221t144 76q84 0 137.5 -71.5t53.5 -213.5q0 -141 -58.5 -214.5t-142.5 -73.5t-137 70.5t-53 205.5zM195 858q0 -57 6 -93t16 -55.5t24.5 -25.5t30.5 -6q14 0 29.5 7t26 26.5t17.5 55.5t7 93t-7 95t-17.5 58.5t-25.5 29t-30 8.5q-16 0 -30.5 -8.5 t-24.5 -30t-16 -58t-6 -96.5zM215 0l688 1233h129l-688 -1233h-129zM707 248q0 145 56 221t144 76q84 0 137.5 -72t53.5 -213t-58.5 -213t-142.5 -72q-82 0 -136 69t-54 204zM825 252q0 -57 6.5 -93t16.5 -55.5t24.5 -25.5t30.5 -6t30.5 7t26 26.5t17.5 55.5t6 93t-6 95 t-17.5 58.5t-25.5 28.5t-31 8q-16 0 -30.5 -8t-24.5 -29.5t-16.5 -58.5t-6.5 -96z" />
<glyph unicode="&#x26;" horiz-adv-x="1134" d="M76 260q0 113 56 189.5t173 130.5q-45 29 -86 83t-41 132q0 111 80 170t197 59q49 0 96 -14.5t82 -42t56.5 -66.5t21.5 -86q0 -94 -53.5 -149.5t-153.5 -96.5q111 -59 172 -130.5t108 -141.5q33 47 57.5 98t41 102.5t24.5 98.5t8 86v35h123q-6 -121 -56 -257t-132 -251 q39 -47 85 -77t124 -30v-102q-104 0 -170 35t-113 88q-143 -139 -364 -139q-160 0 -248 65.5t-88 210.5zM199 260q0 -100 58.5 -139t154.5 -39q180 0 297 121q-31 43 -61 87t-65.5 85t-81.5 75.5t-108 57.5q-49 -20 -85 -41t-60.5 -48.5t-36.5 -65.5t-12 -93zM301 795 q0 -53 27.5 -99.5t83.5 -77.5q92 35 134 83t42 114q0 27 -14.5 46.5t-34 31.5t-43 18.5t-41.5 6.5q-76 0 -115 -37t-39 -86z" />
<glyph unicode="'" horiz-adv-x="274" d="M76 737v328h123v-328h-123z" />
<glyph unicode="(" horiz-adv-x="417" d="M45 383q0 203 62.5 375t183.5 315h112q-121 -147 -182 -320t-61 -370q0 -195 61.5 -359.5t181.5 -308.5h-112q-121 135 -183.5 302t-62.5 366z" />
<glyph unicode=")" horiz-adv-x="417" d="M14 -285q121 143 182.5 308t61.5 360q0 197 -61.5 370t-182.5 320h113q121 -143 183.5 -315t62.5 -375q0 -199 -62.5 -366t-183.5 -302h-113z" />
<glyph unicode="*" horiz-adv-x="591" d="M76 788l166 86l-166 87l67 92l117 -111l-22 162h114l-24 -164l121 113l67 -92l-168 -87l168 -86l-67 -92l-121 113l24 -164h-114l22 162l-117 -111z" />
<glyph unicode="+" horiz-adv-x="765" d="M76 369v102h256v270h102v-270h256v-102h-256v-246h-102v246h-256z" />
<glyph unicode="," horiz-adv-x="274" d="M-43 -221q33 37 59 74q23 33 41.5 71.5t18.5 75.5v123h123v-123q0 -45 -22.5 -85t-49.5 -71q-33 -37 -72 -65h-98z" />
<glyph unicode="-" horiz-adv-x="550" d="M76 389v103h399v-103h-399z" />
<glyph unicode="." horiz-adv-x="274" d="M76 0v123h123v-123h-123z" />
<glyph unicode="/" horiz-adv-x="473" d="M14 0l330 1233h115l-330 -1233h-115z" />
<glyph unicode="0" horiz-adv-x="847" d="M45 481q0 133 27.5 234.5t79 170t120 103.5t152.5 35q80 0 148.5 -31.5t119.5 -96.5t81 -163t30 -229q0 -129 -33 -226.5t-87 -163t-126 -98t-151 -32.5q-78 0 -144.5 30.5t-115 93t-75 155.5t-26.5 218zM168 487q0 -211 71.5 -308t176.5 -97q55 0 103 24.5t84 75.5 t56.5 129.5t20.5 182.5q0 109 -20.5 188.5t-56.5 132.5t-84 80t-103 27q-104 0 -176 -106.5t-72 -328.5z" />
<glyph unicode="1" horiz-adv-x="468" d="M45 737v103q47 18 88 45.5t72 54.5q37 31 67 64h121v-1004h-123v840q-35 -23 -97 -55.5t-128 -47.5z" />
<glyph unicode="2" horiz-adv-x="694" d="M45 0v94q0 59 35 114.5t87 108t113.5 103.5t113.5 103t87 106.5t35 115.5q0 96 -49 136.5t-125 40.5q-66 0 -137.5 -20.5t-118.5 -67.5v102q43 45 108.5 66.5t147.5 21.5q129 0 213 -68.5t84 -197.5q0 -74 -33 -138.5t-83 -121t-109.5 -106.5t-111.5 -98t-89 -95t-43 -97 h510v-102h-635z" />
<glyph unicode="3" horiz-adv-x="714" d="M76 41v109q49 -41 107.5 -54.5t125.5 -13.5q49 0 92 11t75 34t51.5 56.5t19.5 80.5q0 102 -82 152.5t-287 50.5v96q92 0 164 23q31 8 60.5 22.5t52 34t37 47t14.5 62.5q0 94 -46 132t-116 38q-53 0 -116.5 -13.5t-110.5 -48.5v103q47 31 101 46t126 15q57 0 109.5 -18.5 t91.5 -51t61.5 -75.5t22.5 -95q0 -104 -52.5 -167.5t-152.5 -94.5q49 -6 93 -26.5t78 -53t54.5 -75t20.5 -93.5q0 -70 -27 -124t-75 -90.5t-114.5 -56t-144.5 -19.5q-72 0 -131 16t-102 41z" />
<glyph unicode="4" horiz-adv-x="737" d="M14 244v104l461 656h123v-656h125v-104h-125v-244h-123v244h-461zM147 348h328v473z" />
<glyph unicode="5" horiz-adv-x="673" d="M76 20v107q23 -14 53 -23q27 -10 62.5 -16t78.5 -6q115 0 175.5 53t60.5 156q0 102 -63.5 161.5t-170.5 59.5q-47 0 -83.5 -3t-61.5 -7q-29 -6 -51 -10v512h483v-103h-360v-297h73q172 0 264.5 -84t92.5 -221q0 -154 -96.5 -234.5t-262.5 -80.5q-72 0 -116.5 10t-77.5 26 z" />
<glyph unicode="6" horiz-adv-x="743" d="M45 442q0 287 111.5 434.5t304.5 147.5q47 0 94 -2t84 -18v-103q-23 4 -49 10q-23 4 -55.5 7.5t-73.5 3.5q-137 0 -215 -103.5t-78 -290.5q18 31 45 51.5t57.5 32t61 15.5t55.5 4q63 0 119.5 -23.5t99.5 -65.5t67.5 -101.5t24.5 -129.5q0 -72 -24.5 -132t-67.5 -103 t-102.5 -67.5t-130.5 -24.5q-147 0 -237.5 120.5t-90.5 337.5zM176 332q0 -117 51.5 -183.5t145.5 -66.5q41 0 77.5 18.5t65.5 49t45.5 72.5t16.5 89q0 109 -54.5 164t-150.5 55q-51 0 -88 -21.5t-61.5 -52t-36 -64t-11.5 -60.5z" />
<glyph unicode="7" horiz-adv-x="684" d="M14 901v103h656v-62l-359 -942h-123l338 901h-512z" />
<glyph unicode="8" horiz-adv-x="724" d="M45 266q0 88 44 161t132 116q-63 35 -99 93t-36 130q0 55 20.5 102t56.5 82t87 54.5t112 19.5q57 0 107.5 -21.5t88.5 -56.5t59.5 -82t21.5 -98q0 -72 -35 -130t-98 -93q88 -41 131 -117t43 -160q0 -139 -89 -210.5t-229 -71.5q-147 0 -232 71.5t-85 210.5zM168 287 q0 -92 50 -148.5t144 -56.5q92 0 143.5 56.5t51.5 148.5q0 39 -13.5 75.5t-38 65.5t-60.5 46.5t-83 17.5q-86 0 -140 -56.5t-54 -148.5zM209 754q0 -66 39 -113t114 -47q66 0 111 47t45 113q0 72 -45 120t-111 48q-78 0 -115.5 -48t-37.5 -120z" />
<glyph unicode="9" horiz-adv-x="743" d="M45 692q0 72 24.5 132.5t67.5 105.5t102.5 69.5t131.5 24.5q147 0 237 -123t90 -340q0 -287 -111.5 -432t-303.5 -145q-47 0 -94.5 2t-84.5 14v102q23 -6 50 -10q51 -10 129 -10q137 0 214.5 103.5t77.5 289.5q-18 -31 -44.5 -51.5t-57.5 -31.5t-61.5 -15t-55.5 -4 q-63 0 -119.5 23.5t-99.5 65.5t-67.5 100.5t-24.5 129.5zM166 692q0 -109 54 -164t151 -55q51 0 88 21.5t61.5 52.5t35.5 64.5t11 60.5q0 117 -51 183.5t-145 66.5q-41 0 -78 -18.5t-65.5 -49.5t-45 -73t-16.5 -89z" />
<glyph unicode=":" horiz-adv-x="274" d="M76 0v123h123v-123h-123zM76 594v123h123v-123h-123z" />
<glyph unicode=";" horiz-adv-x="274" d="M-43 -221q33 37 59 74q23 33 41.5 71.5t18.5 75.5v123h123v-123q0 -45 -22.5 -85t-49.5 -71q-33 -37 -72 -65h-98zM76 594v123h123v-123h-123z" />
<glyph unicode="&#x3c;" horiz-adv-x="739" d="M45 311v54l680 380v-114l-516 -293l516 -252v-111z" />
<glyph unicode="=" horiz-adv-x="765" d="M76 246v102h614v-102h-614zM76 471v102h614v-102h-614z" />
<glyph unicode="&#x3e;" horiz-adv-x="739" d="M14 -25v111l516 252l-516 293v114l680 -380v-54z" />
<glyph unicode="?" horiz-adv-x="643" d="M76 840v102q18 23 51 41q29 16 71 28.5t105 12.5q49 0 97.5 -14.5t85 -42t59 -70.5t22.5 -98q0 -53 -18.5 -92t-45 -69t-59 -53.5t-59.5 -45t-45 -45t-18 -52.5v-196h-123v196q0 59 37.5 98.5t84 74t85 73.5t38.5 98q0 72 -42 104t-99 32q-55 0 -97 -12.5t-71 -28.5 q-35 -18 -59 -41zM199 0v123h123v-123h-123z" />
<glyph unicode="@" horiz-adv-x="1339" d="M76 383q0 121 50 226.5t134 184t195.5 124t234.5 45.5q119 0 223.5 -38t182.5 -105.5t123 -159t45 -197.5q0 -82 -27 -148.5t-71 -113.5t-98 -73t-110 -26q-84 0 -119.5 37t-41.5 121q-37 -84 -84 -121t-123 -37q-47 0 -91 15.5t-79 49.5t-56.5 86t-21.5 124 q0 68 27.5 126t72.5 101t104.5 67.5t121.5 24.5q57 0 95 -23.5t54 -58.5l17 82h114l-57 -336q0 -43 8 -77q6 -29 19.5 -53.5t39.5 -24.5q45 0 79 26.5t57.5 65.5t35 84t11.5 82q0 59 -30 129t-86 129t-140 99t-195 40t-202 -46t-155.5 -115.5t-99 -154.5t-34.5 -161 q0 -82 30.5 -161t91 -141.5t147.5 -100t200 -37.5q80 0 156.5 17t138.5 40v-104q-70 -23 -144 -39.5t-151 -16.5q-123 0 -230.5 40t-187.5 113t-127 172t-47 218zM465 377q0 -94 40 -133t85 -39q86 0 133 64.5t47 217.5q0 53 -27.5 80t-74.5 27q-82 0 -142.5 -54.5 t-60.5 -162.5z" />
<glyph unicode="A" horiz-adv-x="888" d="M14 0l369 1004h123l368 -1004h-122l-99 266h-422l-100 -266h-117zM266 369h352l-174 501z" />
<glyph unicode="B" horiz-adv-x="786" d="M76 0v1004h286q135 0 211 -67t76 -169q0 -80 -47 -146.5t-129 -89.5q98 -16 168 -79.5t70 -165.5q0 -63 -26 -115.5t-72 -90.5t-109.5 -59.5t-136.5 -21.5h-291zM199 102h155q102 0 168 53.5t66 131.5q0 90 -66.5 142t-189.5 52h-133v-379zM199 584h120q94 0 150.5 41 t56.5 123q0 72 -48 112.5t-146 40.5h-133v-317z" />
<glyph unicode="C" horiz-adv-x="837" d="M45 492q0 123 37 221t103.5 167.5t158.5 106.5t205 37q76 0 150.5 -9t123.5 -32l-41 -102q-59 29 -113.5 35t-119.5 6q-86 0 -156.5 -31t-120 -87t-77 -136t-27.5 -176q0 -193 103.5 -301.5t277.5 -108.5q78 0 126 15.5t107 45.5l41 -102q-59 -33 -132 -45t-156 -12 q-111 0 -201 35.5t-154.5 101t-99.5 160t-35 211.5z" />
<glyph unicode="D" horiz-adv-x="940" d="M76 0v1004h280q264 0 401.5 -122t137.5 -370q0 -115 -40 -209t-111.5 -161.5t-174 -104.5t-225.5 -37h-268zM199 102h145q197 0 312.5 108.5t115.5 301.5q0 197 -108.5 293t-313.5 96h-151v-799z" />
<glyph unicode="E" horiz-adv-x="684" d="M76 0v1004h532v-103h-409v-348h368v-102h-368v-349h409v-102h-532z" />
<glyph unicode="F" horiz-adv-x="622" d="M76 0v1004h532v-103h-409v-348h368v-102h-368v-451h-123z" />
<glyph unicode="G" horiz-adv-x="960" d="M45 481q0 119 41 219.5t112.5 172t170 111.5t213.5 40q76 0 129 -10t88 -21q39 -14 65 -30v-103q-27 16 -67 31q-35 10 -91.5 20.5t-136.5 10.5q-88 0 -161.5 -33t-127 -91.5t-83 -139t-29.5 -177.5q0 -195 105.5 -297t281.5 -102q66 0 113 10t94 35v283h-225v102h348 v-459q-78 -41 -162 -55t-182 -14q-109 0 -200 33.5t-156.5 98t-102.5 157t-37 208.5z" />
<glyph unicode="H" horiz-adv-x="909" d="M76 0v1004h123v-431h512v431h123v-1004h-123v471h-512v-471h-123z" />
<glyph unicode="I" horiz-adv-x="274" d="M76 0v1004h123v-1004h-123z" />
<glyph unicode="J" horiz-adv-x="520" d="M14 6l41 92q12 -4 29 -8q14 -4 32.5 -6t41.5 -2q164 0 164 270v652h122v-652q0 -180 -77.5 -274t-208.5 -94q-74 0 -111 10q-20 6 -33 12z" />
<glyph unicode="K" horiz-adv-x="796" d="M76 0v1004h123v-508l407 508h144l-275 -342l307 -662h-127l-260 561l-196 -248v-313h-123z" />
<glyph unicode="L" horiz-adv-x="622" d="M76 0v1004h123v-902h409v-102h-532z" />
<glyph unicode="M" horiz-adv-x="1196" d="M76 0v1004h164l348 -820l368 820h164v-1004h-123v829l-379 -829h-61l-358 825v-825h-123z" />
<glyph unicode="N" horiz-adv-x="970" d="M76 0v1004h153l543 -844v844h123v-1004h-154l-542 834v-834h-123z" />
<glyph unicode="O" horiz-adv-x="1052" d="M45 487q0 125 34 224.5t96.5 169t153.5 106.5t206 37q106 0 193 -37t149.5 -104.5t96.5 -161.5t34 -211q0 -125 -35 -223.5t-98.5 -166t-155.5 -102t-205 -34.5q-106 0 -193.5 34.5t-148.5 100t-94 159t-33 209.5zM168 487q0 -186 93 -295.5t253 -109.5 q172 0 271.5 111.5t99.5 316.5q0 92 -25.5 169t-72 130t-111 83t-141.5 30q-174 0 -270.5 -116t-96.5 -319z" />
<glyph unicode="P" horiz-adv-x="735" d="M76 0v1004h278q160 0 248 -79t88 -229q0 -147 -96 -237t-268 -90h-127v-369h-123zM199 471h127q121 0 181 62.5t60 160.5q0 100 -46 153.5t-167 53.5h-155v-430z" />
<glyph unicode="Q" horiz-adv-x="1052" d="M45 487q0 125 34 224.5t96.5 169t153.5 106.5t206 37q106 0 193 -37t149.5 -104.5t96.5 -161.5t34 -211q0 -170 -62.5 -289t-173.5 -180q25 -10 51.5 -24.5t48 -36t35 -51t13.5 -68.5h-115q0 29 -16.5 51t-40 39.5t-50 30t-45.5 18.5q-69 -16 -139 -16 q-106 0 -193.5 34.5t-148.5 100t-94 159t-33 209.5zM168 487q0 -186 93 -295.5t253 -109.5q172 0 271.5 111.5t99.5 316.5q0 92 -25.5 169t-72 130t-111 83t-141.5 30q-174 0 -270.5 -116t-96.5 -319z" />
<glyph unicode="R" horiz-adv-x="817" d="M76 0v1004h307q61 0 117.5 -17.5t98.5 -52.5t66.5 -86t24.5 -119q0 -104 -65.5 -164.5t-165.5 -83.5q47 -16 83 -71.5t70 -110.5l191 -299h-139l-175 279q-45 72 -87 111.5t-107 39.5h-96v-430h-123zM199 532h159q90 0 149.5 49.5t59.5 147.5q0 78 -55 125t-154 47h-159 v-369z" />
<glyph unicode="S" horiz-adv-x="806" d="M76 61v103q41 -23 90 -41q41 -16 95 -28.5t114 -12.5q113 0 173 54t60 151q0 70 -40 109.5t-98 65t-128 46t-128 51.5t-98 82t-40 137q0 59 28.5 105.5t74.5 77t105.5 47t118.5 16.5q72 0 127.5 -10t90.5 -21q41 -14 69 -30v-103q-33 16 -74 31q-37 10 -89 20.5 t-124 10.5q-35 0 -71.5 -10.5t-66 -29t-48 -45t-18.5 -59.5q0 -57 40 -91t98 -57.5t128 -46t128 -57t98 -91t40 -148.5q0 -59 -15.5 -114.5t-55 -97.5t-109.5 -66.5t-176 -24.5q-74 0 -130.5 11t-92.5 28q-45 16 -76 38z" />
<glyph unicode="T" horiz-adv-x="714" d="M14 901v103h686v-103h-276v-901h-123v901h-287z" />
<glyph unicode="U" horiz-adv-x="909" d="M76 381v623h123v-615q0 -154 56 -230.5t189 -76.5q129 0 198 71.5t69 223.5v627h123v-609q0 -213 -98.5 -312t-291.5 -99q-184 0 -276 96t-92 301z" />
<glyph unicode="V" horiz-adv-x="888" d="M14 1004h123l307 -861l308 861h122l-368 -1004h-123z" />
<glyph unicode="W" horiz-adv-x="1318" d="M14 1004h123l236 -861l256 861h82l215 -861l256 861h123l-308 -1004h-143l-184 799l-226 -799h-143z" />
<glyph unicode="X" horiz-adv-x="827" d="M14 0l328 502l-307 502h143l236 -400l256 400h143l-328 -502l328 -502h-143l-256 399l-256 -399h-144z" />
<glyph unicode="Y" horiz-adv-x="786" d="M14 1004h123l246 -515l266 515h123l-328 -637v-367h-122v360z" />
<glyph unicode="Z" horiz-adv-x="786" d="M14 0v31l574 870h-533v103h717v-31l-573 -871h551l2 -102h-738z" />
<glyph unicode="[" horiz-adv-x="401" d="M76 -285v1360h311v-100h-201v-1159h201v-101h-311z" />
<glyph unicode="\" horiz-adv-x="473" d="M14 1233h115l330 -1233h-115z" />
<glyph unicode="]" horiz-adv-x="401" d="M14 -184h201v1159h-201v100h312v-1360h-312v101z" />
<glyph unicode="^" horiz-adv-x="925" d="M76 395l340 680h53l381 -680h-115l-293 516l-252 -516h-114z" />
<glyph unicode="_" horiz-adv-x="765" d="M76 0h614v-98h-614v98z" />
<glyph unicode="`" horiz-adv-x="434" d="M76 1128h123l159 -227h-102z" />
<glyph unicode="a" horiz-adv-x="724" d="M76 195q2 68 29.5 109.5t67.5 65t85 32t84 8.5q53 0 91 4t61 10q27 8 43 16q0 117 -52.5 166t-138.5 49q-63 0 -106 -21.5t-72 -45.5q-33 -29 -51 -66l-41 92q20 37 57 66q31 25 83 46.5t130 21.5q53 0 107.5 -14.5t97.5 -47.5t70.5 -86t27.5 -129v-471h-112v82 q-29 -33 -83.5 -65.5t-131.5 -32.5q-110 0 -180 52q-67 49 -66 148v11zM188 195q0 -72 47.5 -97.5t106.5 -25.5q61 0 115.5 33.5t79.5 68.5v174l-58 -16q-25 -6 -55.5 -10.5t-61.5 -4.5t-61.5 -7t-56 -22.5t-41 -39t-15.5 -53.5z" />
<glyph unicode="b" horiz-adv-x="827" d="M76 0v1065h112v-430q25 31 62 55q31 23 77 40.5t107 17.5q53 0 114.5 -21.5t114 -67t86 -115t33.5 -163.5q0 -104 -31.5 -178t-80.5 -120t-111.5 -67.5t-124.5 -21.5q-61 0 -107 16.5t-77 36.5q-37 23 -62 55v-102h-112zM188 195q33 -33 70 -58q33 -23 78 -39t98 -16 q39 0 80 16.5t76 52t57.5 92t22.5 138.5q0 63 -22.5 114.5t-57.5 87t-76 54t-80 18.5q-53 0 -98 -17t-78 -40q-37 -25 -70 -55v-348z" />
<glyph unicode="c" horiz-adv-x="622" d="M45 348q0 90 27.5 164t78 126t119 81t150.5 29q41 0 73.5 -8.5t59.5 -18.5q29 -10 55 -25l-41 -92q-18 14 -41 25q-20 10 -46.5 18t-59.5 8q-53 0 -100.5 -21.5t-83 -61.5t-57 -96t-21.5 -128q0 -70 21.5 -120t57 -82.5t83 -48t100.5 -15.5q33 0 59.5 7t46.5 17 q23 10 41 27l41 -92q-25 -14 -55 -25q-27 -10 -63.5 -16t-79.5 -6q-80 0 -146.5 23.5t-116 68.5t-76 110.5t-26.5 151.5z" />
<glyph unicode="d" horiz-adv-x="827" d="M45 381q0 94 34 163.5t86 115t113.5 67t114.5 21.5q61 0 107.5 -17.5t77.5 -40.5q37 -25 61 -55v430h113v-1065h-113v102q-25 -33 -61 -55q-31 -20 -77 -36.5t-108 -16.5q-61 0 -123.5 21.5t-111.5 67.5t-81 119.5t-32 178.5zM158 381q0 -82 22.5 -138.5t57 -92t75.5 -52 t80 -16.5q53 0 98.5 16.5t77.5 38.5q37 25 70 58v348q-33 31 -70 55q-33 23 -78 40t-98 17q-39 0 -80 -18.5t-75.5 -54t-57 -87t-22.5 -114.5z" />
<glyph unicode="e" horiz-adv-x="722" d="M45 356q0 84 24.5 156t68.5 124t103.5 82t131.5 30q141 0 223 -92.5t82 -264.5v-53h-520q0 -131 68.5 -193.5t168.5 -62.5q55 0 92 10t60 25q25 16 41 37l41 -93q-27 -20 -62 -34q-31 -12 -73.5 -22.5t-98.5 -10.5q-78 0 -141.5 20.5t-110.5 64.5t-72.5 112.5 t-25.5 164.5zM158 430h403q-4 104 -53 164.5t-135 60.5q-84 0 -142.5 -63.5t-72.5 -161.5z" />
<glyph unicode="f" horiz-adv-x="479" d="M14 625v92h133v110q0 121 48.5 189.5t152.5 68.5q35 0 58.5 -2t35.5 -4q14 -2 23 -4v-92q-8 2 -19 4q-10 2 -23 4t-36 2q-66 0 -96.5 -39t-30.5 -127v-110h205v-92h-205v-625h-113v625h-133z" />
<glyph unicode="g" horiz-adv-x="827" d="M45 356q0 104 32 178t81 122.5t111.5 70t123.5 21.5t107.5 -17.5t77.5 -40.5q37 -25 61 -55v102h113v-714q0 -199 -94.5 -288t-295.5 -89q-61 0 -107 10t-77 25q-37 16 -61 36l41 93q20 -20 49 -37q25 -14 63.5 -24.5t91.5 -10.5q137 0 207 61.5t70 202.5v100 q-25 -33 -61 -55q-31 -20 -77 -36.5t-108 -16.5q-53 0 -114.5 20.5t-113.5 65.5t-86 112.5t-34 163.5zM158 356q0 -66 22.5 -116t57 -85.5t75.5 -54t80 -18.5q53 0 98.5 16.5t77.5 38.5q37 25 70 58v348q-33 31 -70 55q-33 23 -78 40t-98 17q-39 0 -80 -16t-75.5 -52 t-57 -92.5t-22.5 -138.5z" />
<glyph unicode="h" horiz-adv-x="765" d="M76 0v1065h112v-451q18 37 52 66q29 25 70.5 46.5t103.5 21.5q74 0 127 -20.5t85.5 -57.5t48 -86t15.5 -107v-477h-112v483q0 74 -53.5 118t-131.5 44q-53 0 -92 -19.5t-63 -41.5q-29 -27 -50 -62v-522h-112z" />
<glyph unicode="i" horiz-adv-x="264" d="M76 0v737h112v-737h-112zM76 852v111h112v-111h-112z" />
<glyph unicode="j" horiz-adv-x="264" d="M-207 -324l41 93q12 -8 25 -17q25 -14 53 -14q78 0 121 63.5t43 190.5v745h112v-725q0 -174 -72.5 -270t-203.5 -96q-33 0 -54.5 4t-35.5 10q-16 8 -29 16zM76 852v111h112v-111h-112z" />
<glyph unicode="k" horiz-adv-x="673" d="M76 0v1065h112v-739l314 391h125l-191 -238l223 -479h-106l-182 397l-183 -229v-168h-112z" />
<glyph unicode="l" horiz-adv-x="264" d="M76 0v1065h112v-1065h-112z" />
<glyph unicode="m" horiz-adv-x="1267" d="M76 0v737h112v-123q0 2 13.5 23.5t41 46.5t69.5 44.5t102 19.5q104 0 163.5 -39t88.5 -103q8 12 27.5 36t51 47.5t74.5 41t96 17.5q74 0 127.5 -20.5t86 -57.5t48 -86t15.5 -107v-477h-113v483q0 74 -53 118t-131 44q-53 0 -92 -19.5t-64 -41.5q-29 -27 -49 -62v-522 h-112v483q0 74 -53.5 118t-131.5 44q-53 0 -92 -19.5t-63 -41.5q-29 -27 -50 -62v-522h-112z" />
<glyph unicode="n" horiz-adv-x="765" d="M76 0v737h112v-123q18 37 52 66q29 25 70.5 46.5t103.5 21.5q74 0 127 -20.5t85.5 -57.5t48 -86t15.5 -107v-477h-112v483q0 74 -53.5 118t-131.5 44q-53 0 -92 -19.5t-63 -41.5q-29 -27 -50 -62v-522h-112z" />
<glyph unicode="o" horiz-adv-x="804" d="M45 358q0 186 97.5 288t267.5 102q160 0 255 -99.5t95 -273.5q0 -186 -97.5 -283.5t-267.5 -97.5q-160 0 -255 95t-95 269zM158 358q0 -131 64 -203.5t173 -72.5q117 0 184.5 75.5t67.5 217.5q0 129 -64.5 204.5t-172.5 75.5q-117 0 -184.5 -77.5t-67.5 -219.5z" />
<glyph unicode="p" horiz-adv-x="827" d="M76 -324v1061h112v-102q25 31 62 55q31 23 77 40.5t107 17.5t124 -21.5t112 -70t80.5 -122t31.5 -178.5q0 -96 -33.5 -163.5t-86 -112.5t-114 -65.5t-114.5 -20.5q-61 0 -107 16.5t-77 36.5q-37 23 -62 55v-426h-112zM188 195q33 -33 70 -58q33 -23 78 -39t98 -16 q39 0 80 18.5t76 54t57.5 86t22.5 115.5q0 82 -22.5 138.5t-57.5 92.5t-76 52t-80 16q-53 0 -98 -17t-78 -40q-37 -25 -70 -55v-348z" />
<glyph unicode="q" horiz-adv-x="827" d="M45 356q0 104 32 178t81 122.5t111.5 70t123.5 21.5t107.5 -17.5t77.5 -40.5q37 -25 61 -55v102h113v-1061h-113v426q-25 -33 -61 -55q-31 -20 -77 -36.5t-108 -16.5q-53 0 -114.5 20.5t-113.5 65.5t-86 112.5t-34 163.5zM158 356q0 -66 22.5 -116t57 -85.5t75.5 -54 t80 -18.5q53 0 98.5 16.5t77.5 38.5q37 25 70 58v348q-33 31 -70 55q-33 23 -78 40t-98 17q-39 0 -80 -16t-75.5 -52t-57 -92.5t-22.5 -138.5z" />
<glyph unicode="r" horiz-adv-x="462" d="M76 0v737h112v-194q18 57 45 102q23 39 58 71t82 32q16 0 29.5 -2.5t23.5 -4.5q12 -2 23 -4v-112q-10 2 -23 4q-10 2 -23.5 4t-29.5 2q-31 0 -64 -32t-59 -68q-33 -45 -62 -101v-434h-112z" />
<glyph unicode="s" horiz-adv-x="643" d="M76 31v92q23 -16 55 -27q27 -10 64.5 -17t85.5 -7q84 0 129 32.5t45 100.5q0 51 -28 79.5t-71 46t-91 30t-91 34t-70.5 58t-27.5 100.5q0 43 22.5 80t57 64.5t79 44t87.5 16.5q53 0 92 -8.5t63 -18.5q29 -10 49 -24v-93q-20 14 -51 25q-27 10 -64.5 18.5t-88.5 8.5 t-92.5 -33t-41.5 -80q0 -43 28 -63.5t71 -35t91 -26.5t91 -36.5t70.5 -68.5t27.5 -118q0 -43 -15 -83t-49 -71t-89.5 -49t-132.5 -18q-47 0 -85 6t-65 16q-33 10 -55 25z" />
<glyph unicode="t" horiz-adv-x="479" d="M14 625v92h133v348h113v-348h205v-92h-205v-377q0 -88 31 -127t96 -39q23 0 36 1t23 3t19 6v-92q-8 -2 -23 -4q-12 -2 -35.5 -2h-58.5q-104 0 -152.5 66.5t-48.5 187.5v377h-133z" />
<glyph unicode="u" horiz-adv-x="765" d="M76 260v477h112v-483q0 -74 53.5 -118t131.5 -44q53 0 92 19.5t63 42.5q29 27 50 61v522h112v-737h-112v123q-18 -37 -52 -66q-29 -25 -71.5 -44t-102.5 -19q-74 0 -127 20.5t-86 56t-48 84t-15 105.5z" />
<glyph unicode="v" horiz-adv-x="704" d="M14 737h133l215 -604l216 604h112l-256 -737h-143z" />
<glyph unicode="w" horiz-adv-x="1062" d="M14 737h133l154 -604l195 604h82l174 -604l174 604h123l-226 -737h-123l-163 584l-185 -584h-133z" />
<glyph unicode="x" horiz-adv-x="643" d="M14 0l246 369l-246 368h123l185 -276l184 276h123l-246 -379l246 -358h-123l-184 266l-185 -266h-123z" />
<glyph unicode="y" horiz-adv-x="753" d="M14 -324l41 93q12 -8 25 -17q25 -14 57 -14q45 0 78 19.5t55 76.5l70 166l-317 737h122l256 -583l215 583h123l-344 -878q-23 -55 -44 -96.5t-50 -67t-67.5 -37.5t-96.5 -12q-33 0 -54.5 4t-37.5 10q-18 8 -31 16z" />
<glyph unicode="z" horiz-adv-x="679" d="M76 0v33l420 612h-381v92h551v-39l-416 -606h409v-92h-583z" />
<glyph unicode="{" horiz-adv-x="428" d="M45 315v88q61 6 94 47.5t33 124.5v240q0 129 59.5 191.5t182.5 68.5v-100q-59 -4 -93 -45t-34 -119v-246q0 -82 -31 -136t-102 -75q68 -16 100.5 -70.5t32.5 -140.5v-233q0 -88 27.5 -126t99.5 -38v-100q-242 0 -242 250v241q0 162 -127 178z" />
<glyph unicode="|" horiz-adv-x="266" d="M76 -254v1430h114v-1430h-114z" />
<glyph unicode="}" horiz-adv-x="428" d="M14 -254q72 0 99.5 38t27.5 126v233q0 86 33 140.5t100 70.5q-72 20 -102.5 74.5t-30.5 136.5v246q0 78 -33.5 119t-93.5 45v100q123 -6 182.5 -68.5t59.5 -191.5v-240q0 -84 33 -124.5t94 -47.5v-88q-127 -16 -127 -178v-241q0 -250 -242 -250v100z" />
<glyph unicode="~" horiz-adv-x="763" d="M76 338q0 84 45 138t127 54q39 0 71.5 -17t65.5 -36.5t65.5 -37t71.5 -17.5q33 0 54.5 27.5t25.5 80.5h86q-4 -98 -49 -145t-125 -47q-41 0 -74.5 16.5t-65.5 37t-62.5 36.5t-63.5 16q-88 0 -88 -106h-84z" />
<glyph unicode="&#xa9;" horiz-adv-x="1345" d="M76 496q0 125 47 233.5t128 189t189.5 127t233.5 46.5t233.5 -46.5t189.5 -127t127 -189t46 -233.5t-46 -232.5t-127 -187.5t-189.5 -126t-233.5 -46t-233.5 46t-189.5 126t-128 187.5t-47 232.5zM137 496q0 -111 42 -208.5t115 -169t171 -112.5t209 -41t209 41 t169.5 112.5t113.5 169t42 208.5t-42 209t-113.5 169.5t-170 113.5t-208.5 42q-111 0 -209 -42t-171 -113.5t-115 -169.5t-42 -209zM344 485q0 88 26.5 158t75 119t116 75.5t149.5 26.5q47 0 98 -6t88 -20l-25 -54q-37 16 -78.5 21.5t-82.5 5.5q-68 0 -123.5 -23.5 t-93 -66.5t-59 -103.5t-21.5 -132.5q0 -150 80.5 -233.5t216.5 -83.5q53 0 86.5 9t74.5 32l25 -57q-41 -23 -91 -31t-106 -8q-162 0 -259 99t-97 273z" />
<glyph unicode="&#xad;" horiz-adv-x="550" d="M76 389v103h399v-103h-399z" />
<glyph unicode="&#xae;" horiz-adv-x="1345" d="M76 496q0 125 47 233.5t128 189t189.5 127t233.5 46.5t233.5 -46.5t189.5 -127t127 -189t46 -233.5t-46 -232.5t-127 -187.5t-189.5 -126t-233.5 -46t-233.5 46t-189.5 126t-128 187.5t-47 232.5zM137 496q0 -111 42 -208.5t115 -169t171 -112.5t209 -41t209 41 t169.5 112.5t113.5 169t42 208.5t-42 209t-113.5 169.5t-170 113.5t-208.5 42q-111 0 -209 -42t-171 -113.5t-115 -169.5t-42 -209zM465 143v731h219q90 0 153.5 -49t63.5 -145q0 -49 -14.5 -84t-39 -58.5t-57 -37t-67.5 -19.5q37 -20 67.5 -53t47.5 -61l143 -224h-84 l-123 203q-33 53 -80 86t-76 33h-83v-322h-70zM535 520h108q37 0 71 10.5t59.5 30t41.5 49t16 70.5q0 61 -44 99t-121 38h-131v-297z" />
<glyph unicode="&#xbc;" horiz-adv-x="1415" d="M90 1061v57q25 10 48.5 25.5t39.5 30.5q20 16 37 34h66v-553h-68v463q-18 -12 -53 -30.5t-70 -26.5zM322 0l739 1233h115l-740 -1233h-114zM979 176v57l252 361h67v-361h70v-57h-70v-135h-67v135h-252zM1053 233h178v261z" />
<glyph unicode="&#xbd;" horiz-adv-x="1441" d="M90 1061v57q25 10 48.5 25.5t39.5 30.5q20 16 37 34h66v-553h-68v463q-18 -12 -53 -30.5t-70 -26.5zM322 0l739 1233h115l-740 -1233h-114zM1024 41v53q0 51 41 95t91 87t91 87.5t41 95.5q0 53 -27.5 75.5t-70.5 22.5q-35 0 -76 -11t-67 -38v57q49 49 143 49 q72 0 119 -38.5t47 -110.5q0 -63 -39 -112.5t-87 -92.5t-89 -82t-47 -80h284v-57h-354z" />
<glyph unicode="&#xbe;" horiz-adv-x="1413" d="M76 688v60q29 -23 60.5 -30t68.5 -7q53 0 91 24.5t38 75.5q0 55 -44 83t-157 28v53q49 2 88 12q35 10 62.5 30.5t27.5 59.5q0 53 -24.5 73.5t-63.5 20.5q-29 0 -63.5 -7t-61.5 -25v55q53 35 125 35q66 0 111 -38t45 -95q0 -109 -113 -144q53 -8 94 -44t41 -91 q0 -78 -55 -120t-141 -42q-41 0 -73 9.5t-56 23.5zM319 0l740 1233h115l-740 -1233h-115zM977 176v57l252 361h67v-361h70v-57h-70v-135h-67v135h-252zM1051 233h178v261z" />
<glyph unicode="&#xe01;" horiz-adv-x="878" d="M45 676q33 61 84 112q43 41 109.5 77t164.5 36q70 0 140.5 -16.5t128 -50t94.5 -89t37 -131.5v-491q0 -29 -12.5 -50.5t-28.5 -37.5q-18 -20 -41 -35h-41v573q0 70 -25.5 114t-66.5 68.5t-90 34t-95 9.5q-59 0 -103 -19.5t-73 -42.5q-35 -27 -59 -61l123 -103 q-12 -14 -21 -36q-8 -20 -14 -50t-6 -77v-410h-123v410q0 39 6 68.5t14 51.5q8 25 21 43q-35 29 -62 52q-23 18 -42 33.5t-19 17.5z" />
<glyph unicode="&#xe02;" horiz-adv-x="735" d="M45 778v103h123q92 0 148.5 -46.5t56.5 -138.5q0 -51 -25.5 -92t-56.5 -72q-16 -16 -39 -57t-23 -106v-82q0 -39 6.5 -76t22.5 -65.5t46 -46t79 -17.5q45 0 75.5 19.5t47 49t24 65.5t7.5 71v594h122v-594q0 -61 -13 -116.5t-45 -96.5t-85 -65.5t-133 -24.5t-133 24.5 t-85 65.5t-45.5 96t-13.5 117v82q0 53 10.5 91t26 65.5t33 49t33.5 39.5q12 16 26.5 41t14.5 41q0 31 -17.5 56.5t-64.5 25.5h-123z" />
<glyph unicode="&#xe03;" horiz-adv-x="735" d="M45 780v101q16 0 31.5 -10.5t29.5 -20.5q16 -14 31 -31q14 16 33 31q16 10 36.5 20.5t43.5 10.5q61 0 102 -43t41 -121q0 -61 -25.5 -97t-56.5 -67q-8 -8 -21.5 -22.5t-26.5 -36t-23.5 -48t-10.5 -57.5v-102q0 -39 6.5 -76t22.5 -65.5t46 -46t79 -17.5q45 0 75.5 20.5 t47 51t24 67.5t7.5 72v588h122v-580q0 -68 -13 -125t-45 -100t-85 -67.5t-133 -24.5t-133 24.5t-85 65.5t-45.5 96t-13.5 117v102q0 61 28 119.5t75 105.5q16 16 38.5 36t22.5 67q0 31 -19.5 46t-41.5 15q-12 0 -26.5 -10t-26.5 -20q-14 -14 -29 -31q-12 16 -27 31 q-12 12 -26.5 22t-28.5 10z" />
<glyph unicode="&#xe04;" horiz-adv-x="888" d="M76 0v614q0 70 31.5 123.5t84 90t118 55t134.5 18.5q70 0 135.5 -18.5t118 -55t84 -90t31.5 -123.5v-614h-123v614q0 45 -21.5 80t-55 58.5t-79 35t-90.5 11.5q-47 0 -91 -11.5t-77.5 -35t-55 -58.5t-21.5 -80v-245q27 35 63 61q31 23 72 42.5t90 19.5v-123 q-49 0 -90 -16.5t-72 -35.5q-37 -23 -63 -51v-266h-123z" />
<glyph unicode="&#xe05;" horiz-adv-x="888" d="M76 0v614q0 53 18.5 105.5t51 92.5t77.5 64.5t99 24.5q23 0 45 -16.5t39 -34.5q20 -23 38 -51q18 29 39 51q16 18 39 34.5t45 16.5q53 0 98.5 -24.5t78 -64.5t51 -92t18.5 -106v-614h-123v614q0 31 -8 64t-23.5 59.5t-38 44t-53.5 17.5q-16 0 -37.5 -19.5t-40.5 -42.5 q-23 -27 -45 -61q-25 35 -47 61q-20 23 -39.5 42.5t-35.5 19.5q-31 0 -54.5 -17.5t-39 -44t-22.5 -59.5t-7 -64v-245q27 35 63 61q31 23 72 42.5t90 19.5v-123q-49 0 -90 -16.5t-72 -35.5q-37 -23 -63 -51v-266h-123z" />
<glyph unicode="&#xe06;" horiz-adv-x="899" d="M45 780v101q14 0 30.5 -10.5t30.5 -20.5q16 -14 31 -31q14 16 33 31q16 10 36.5 20.5t43.5 10.5q61 0 102 -43t41 -121q0 -70 -25.5 -110t-56 -70.5t-56.5 -62.5t-26 -85v-164q33 -35 70 -61q33 -23 78 -42.5t98 -19.5q123 0 174 61.5t51 184.5v533h123v-594 q0 -53 -18.5 -107.5t-55 -97.5t-90 -70.5t-122.5 -27.5q-78 0 -135.5 21.5t-96.5 47.5q-45 31 -76 70v-123h-123v401q0 72 26 110t56.5 65.5t56 57.5t25.5 83q0 31 -19.5 46t-41.5 15q-12 0 -26.5 -10t-26.5 -20q-14 -14 -29 -31q-14 16 -27 31q-12 12 -25.5 22t-29.5 10z " />
<glyph unicode="&#xe07;" horiz-adv-x="745" d="M45 594h123l123 -492q55 0 106.5 24t91 69t64.5 106t25 139q0 76 -25 138.5t-68 107.5t-98 68.5t-117 23.5v103q92 0 171 -32t136.5 -89.5t90 -138t32.5 -181.5q0 -100 -35.5 -181t-94 -138.5t-131 -89t-148.5 -31.5h-103z" />
<glyph unicode="&#xe08;" horiz-adv-x="847" d="M45 717q20 51 64 92q37 35 100 63.5t164 28.5q100 0 180 -36t135 -96t85 -140t30 -168q0 -96 -26.5 -180t-76 -146.5t-122 -98.5t-164.5 -36h-103l-82 328q-6 16 -15 18t-26 2h-41v103h82q47 0 68.5 -15.5t34.5 -46.5l82 -287q68 0 118 32t82.5 82t49 114.5t16.5 130.5 q0 88 -27.5 151.5t-71.5 105.5t-99.5 61.5t-108.5 19.5q-78 0 -132.5 -29t-88.5 -63q-41 -41 -66 -93z" />
<glyph unicode="&#xe09;" horiz-adv-x="878" d="M45 389v103h82q61 0 92 -41t31 -107v-57q0 -47 5 -81t22.5 -57.5t50 -35t86.5 -11.5q53 0 101 19.5t85 42.5q43 27 80 61v307q0 123 -60.5 195t-185.5 72q-61 0 -113.5 -19.5t-91.5 -42.5q-45 -27 -82 -61l-41 102q35 35 87 62q41 23 102 42t139 19q188 0 278.5 -97 t90.5 -251v-553h-123v123q-37 -39 -84 -70q-41 -27 -97.5 -48t-125.5 -21q-123 0 -184.5 81.5t-61.5 221.5v41q0 16 -3 38.5t-22 22.5h-57z" />
<glyph unicode="&#xe0a;" horiz-adv-x="786" d="M45 778v103h123q92 0 148.5 -46.5t56.5 -138.5q0 -51 -25.5 -92t-56.5 -72q-16 -16 -39 -57t-23 -106v-105q0 -35 6.5 -67.5t25 -58t53 -41t94.5 -15.5q49 0 84.5 24.5t59 60.5t35 76t11.5 72q0 53 -11.5 102.5t-35 86.5t-58 58.5t-79.5 21.5v102q45 0 83 31t65.5 82 t41.5 119.5t14 146.5h123q0 -131 -29.5 -214t-66.5 -130t-69.5 -65.5t-38.5 -20.5q4 -2 32.5 -16.5t62.5 -50.5t61.5 -97t27.5 -156q0 -59 -14.5 -118.5t-50 -106.5t-96 -76.5t-152.5 -29.5t-150.5 22.5t-92.5 62.5t-46.5 92t-12.5 111v97q0 53 10.5 91t26 65.5t33 49 t33.5 39.5q12 16 26.5 41t14.5 41q0 31 -17.5 56.5t-64.5 25.5h-123z" />
<glyph unicode="&#xe0b;" horiz-adv-x="786" d="M45 780v101q16 0 31.5 -10.5t29.5 -20.5q16 -14 31 -31q14 16 33 31q16 10 36.5 20.5t43.5 10.5q61 0 102 -43t41 -121q0 -61 -25.5 -97t-56.5 -67q-8 -8 -21.5 -22.5t-26.5 -36t-23.5 -48t-10.5 -57.5v-125q0 -35 6.5 -67.5t25 -58t53 -41t94.5 -15.5q49 0 84.5 24.5 t59 60.5t35 76t11.5 72q0 53 -11.5 102.5t-35 86.5t-58 58.5t-79.5 21.5v102q45 0 83 31t65.5 82t41.5 119.5t14 146.5h123q0 -131 -29.5 -214t-66.5 -130t-69.5 -65.5t-38.5 -20.5q4 -2 32.5 -16.5t62.5 -50.5t61.5 -97t27.5 -156q0 -59 -14.5 -118.5t-50 -106.5t-96 -76.5 t-152.5 -29.5t-150.5 22.5t-92.5 62.5t-46.5 92t-12.5 111v117q0 61 28 119.5t75 105.5q16 16 38.5 36t22.5 67q0 31 -19.5 46t-41.5 15q-12 0 -26.5 -10t-26.5 -20q-14 -14 -29 -31q-12 16 -27 31q-12 12 -26.5 22t-28.5 10z" />
<glyph unicode="&#xe0c;" horiz-adv-x="1411" d="M45 676q33 61 84 112q43 41 109.5 77t164.5 36q70 0 140.5 -16.5t128 -50t94.5 -89t37 -131.5v-389q25 -35 59 -61q29 -23 71 -42.5t95 -19.5q61 0 98 15.5t55.5 46.5t24.5 77t6 107v533h123v-594q0 -53 -12 -107.5t-41 -97.5t-76 -70.5t-116 -27.5q-78 0 -132.5 21.5 t-89.5 47.5q-41 31 -65 70v-123h-123v573q0 70 -25.5 114t-66.5 68.5t-90 34t-95 9.5q-59 0 -103 -19.5t-73 -42.5q-35 -27 -59 -61l123 -103q-12 -14 -21 -36q-8 -20 -14 -50t-6 -77v-267q0 -16 2 -27.5t18 -13.5h62v-102h-82q-61 0 -92 33t-31 110v267q0 39 6 68.5 t14 51.5q8 25 21 43q-35 29 -62 52q-23 18 -42 33.5t-19 17.5z" />
<glyph unicode="&#xe0d;" horiz-adv-x="1411" d="M45 676q33 61 84 112q43 41 109.5 77t164.5 36q70 0 140.5 -16.5t128 -50t94.5 -89t37 -131.5v-321q0 -92 40 -141.5t138 -49.5q55 0 99 19.5t73 42.5q35 27 59 61v656h123v-797q0 -76 -32.5 -139.5t-85 -109.5t-115 -71.5t-121.5 -25.5t-107.5 15.5t-82.5 35.5 q-39 23 -70 51l41 103q25 -29 57 -52q29 -20 69 -35.5t93 -15.5q98 0 164.5 73t66.5 200v10q-29 -39 -67 -70q-35 -27 -84 -48t-115 -21q-78 0 -129 23.5t-81.5 65.5t-43 100t-12.5 128v272q0 70 -25.5 114t-66.5 68.5t-90 34t-95 9.5q-59 0 -103 -19.5t-73 -42.5 q-35 -27 -59 -61l123 -103q-12 -14 -21 -36q-8 -20 -14 -50t-6 -77v-267q0 -16 2 -27.5t18 -13.5h62v-102h-82q-61 0 -92 33t-31 110v267q0 39 6 68.5t14 51.5q8 25 21 43q-35 29 -62 52q-23 18 -42 33.5t-19 17.5z" />
<glyph unicode="&#xe0e;" horiz-adv-x="878" d="M45 0v102h61q16 2 18.5 13.5t2.5 27.5v267q0 39 6 68.5t14 51.5q8 25 21 43q-35 29 -62 52q-23 18 -42 33.5t-19 17.5q33 61 84 112q43 41 109.5 77t164.5 36q70 0 140.5 -16.5t128 -50t94.5 -89t37 -131.5v-751q0 -25 -5 -59.5t-26.5 -66.5t-65.5 -55.5t-120 -23.5 q-47 0 -89 15.5t-73 35.5q-37 23 -66 51q-33 -29 -75 -51q-37 -20 -92.5 -35.5t-124.5 -15.5v102q70 0 125 15.5t92 36.5q43 23 75 51q33 -29 68 -51q29 -20 65.5 -36t75.5 -16q66 0 89.5 30t23.5 93v690q0 70 -25.5 114t-66.5 68.5t-90 34t-95 9.5q-59 0 -103 -19.5 t-73 -42.5q-35 -27 -59 -61l123 -103q-12 -14 -21 -36q-8 -20 -14 -50t-6 -77v-267q0 -78 -31 -110.5t-92 -32.5h-82z" />
<glyph unicode="&#xe0f;" horiz-adv-x="878" d="M45 0v102h61q16 2 18.5 13.5t2.5 27.5v267q0 39 6 68.5t14 51.5q8 25 21 43q-35 29 -62 52q-23 18 -42 33.5t-19 17.5q33 61 84 112q43 41 109.5 77t164.5 36q70 0 140.5 -16.5t128 -50t94.5 -89t37 -131.5v-731q0 -23 -3 -60.5t-22.5 -74.5t-61.5 -63.5t-118 -26.5 q-33 0 -62.5 15.5t-52.5 35.5q-27 23 -51 51l-72 -102l-77 102q-35 -29 -72 -51q-31 -18 -70 -33.5t-75 -15.5v100q37 0 75.5 15.5t69.5 36.5q37 23 72 51l77 -103l72 103q2 -4 13.5 -20.5t31 -35t45 -33t56.5 -14.5q63 0 82.5 36t19.5 69v708q0 70 -25.5 114t-66.5 68.5 t-90 34t-95 9.5q-59 0 -103 -19.5t-73 -42.5q-35 -27 -59 -61l123 -103q-12 -14 -21 -36q-8 -20 -14 -50t-6 -77v-267q0 -78 -31 -110.5t-92 -32.5h-82z" />
<glyph unicode="&#xe10;" horiz-adv-x="847" d="M45 717q20 51 64 92q37 35 100 63.5t164 28.5q88 0 164 -29q20 6 45.5 17.5t47 28t36 37t14.5 49.5h123q0 -41 -16.5 -72t-41 -53.5t-54 -37t-58.5 -22.5q82 -61 126 -155.5t44 -202.5q0 -96 -26.5 -180t-76 -146.5t-122 -98.5t-164.5 -36h-103l-82 328q-6 16 -15 18 t-26 2h-41v103h82q47 0 68.5 -15.5t34.5 -46.5l82 -287q68 0 118 32t82.5 82t49 114.5t16.5 130.5q0 88 -27.5 151.5t-71.5 105.5t-99.5 61.5t-108.5 19.5q-78 0 -132.5 -29t-88.5 -63q-41 -41 -66 -93zM66 -324q53 0 92 15.5t63 36.5q29 23 49 51l72 -103l72 103 q0 -2 11 -18.5t30.5 -35t45 -34t56.5 -15.5t47.5 10.5t24.5 24t9 26.5t1 21v103h123v-103q0 -8 -3 -37.5t-20.5 -62.5t-54.5 -58.5t-106 -25.5q-47 0 -77 15.5t-50 35.5q-23 23 -37 51l-72 -102l-72 102q-20 -29 -49 -51q-25 -20 -63.5 -35.5t-91.5 -15.5v102z" />
<glyph unicode="&#xe11;" horiz-adv-x="899" d="M45 801v100q14 0 30.5 -10t30.5 -21q16 -14 31 -30q14 16 33 30q16 10 36.5 20.5t43.5 10.5q45 0 88 -30.5t43 -92.5q20 35 51 62q25 23 61.5 42t84.5 19q53 0 98 -27.5t77.5 -71.5t51 -99.5t18.5 -108.5v-594h-123v532q0 123 -41 184.5t-102 61.5q-53 0 -97 -29.5 t-81 -76.5t-64.5 -105.5t-47 -115t-29 -106.5t-9.5 -79v-33v-233h-123v217q0 111 26 195t56.5 146.5t56 105.5t25.5 73q0 31 -19.5 46.5t-41.5 15.5q-12 0 -26.5 -10.5t-26.5 -20.5q-14 -14 -29 -31q-14 16 -27 31q-12 12 -25.5 22.5t-29.5 10.5z" />
<glyph unicode="&#xe12;" horiz-adv-x="1411" d="M45 451q0 121 21.5 206.5t58.5 140t85 79t101 24.5q16 0 36 -16.5t40 -34.5q23 -23 47 -51q23 29 45 51q18 18 40 34.5t38 16.5q53 0 98 -22.5t78 -59.5t51.5 -86t18.5 -102v-406q25 -35 59 -61q29 -23 71 -42.5t95 -19.5q61 0 98 15.5t55.5 46.5t24.5 77t6 107v533h123 v-594q0 -53 -12 -107.5t-41 -97.5t-76 -70.5t-116 -27.5q-78 0 -132.5 21.5t-89.5 47.5q-41 31 -65 70v-123h-123v631q0 66 -33 117t-90 51q-16 0 -37.5 -19.5t-40.5 -42.5q-23 -27 -45 -61q-25 35 -47 61q-20 23 -39.5 42.5t-36.5 19.5q-23 0 -48 -17.5t-46.5 -57.5 t-35 -106.5t-13.5 -166.5q0 -78 12.5 -144.5t39 -117t69.5 -79t104 -28.5q23 0 37 3t25 7q10 4 20 10v-102l-20 -8t-24.5 -6t-37.5 -2q-84 0 -149.5 35.5t-109.5 98t-66.5 147.5t-22.5 186z" />
<glyph unicode="&#xe13;" horiz-adv-x="1411" d="M45 676q33 61 84 112q43 41 109.5 77t164.5 36q70 0 140.5 -16.5t128 -50t94.5 -89t37 -131.5v-266q0 -61 6 -107t24.5 -77t55.5 -46.5t98 -15.5q53 0 95 19.5t71 42.5q35 27 59 61v656h123v-881h-123v123q-29 -39 -67 -70q-35 -27 -88 -48t-131 -21q-70 0 -117 27.5 t-75.5 70.5t-41 97t-12.5 108v286q0 70 -25.5 114t-66.5 68.5t-90 34t-95 9.5q-59 0 -103 -19.5t-73 -42.5q-35 -27 -59 -61l123 -103q-12 -14 -21 -36q-8 -20 -14 -50t-6 -77v-267q0 -16 2 -27.5t18 -13.5h62v-102h-82q-61 0 -92 33t-31 110v267q0 39 6 68.5t14 51.5 q8 25 21 43q-35 29 -62 52q-23 18 -42 33.5t-19 17.5z" />
<glyph unicode="&#xe14;" horiz-adv-x="878" d="M45 451q0 123 35 208.5t90 139t125 78t139 24.5q70 0 135.5 -16.5t117.5 -50t84 -89t32 -131.5v-614h-123v614q0 45 -21.5 80t-55.5 58.5t-79 35t-90 11.5q-47 0 -94 -20.5t-85 -63.5t-62.5 -108.5t-24.5 -155.5q0 -78 12.5 -144.5t39 -117t69.5 -79t104 -28.5 q43 0 64 10q10 4 18 10v-102q-8 -4 -18 -8t-25.5 -6t-38.5 -2q-78 0 -141.5 32.5t-109.5 93t-71.5 146.5t-25.5 195z" />
<glyph unicode="&#xe15;" horiz-adv-x="878" d="M45 451q0 121 21.5 206.5t58.5 140t85 79t101 24.5q23 0 45.5 -16.5t38.5 -34.5q20 -23 39 -51q18 29 39 51q16 18 39 34.5t45 16.5q45 0 90 -22.5t79 -59.5t55.5 -86t21.5 -102v-631h-123v631q0 33 -10.5 62.5t-27.5 53t-39.5 38t-45.5 14.5q-16 0 -37.5 -19.5 t-40.5 -42.5q-23 -27 -45 -61q-25 35 -47 61q-20 23 -39.5 42.5t-36.5 19.5q-23 0 -47 -17.5t-45.5 -57.5t-36 -106.5t-14.5 -166.5q0 -78 12.5 -144.5t39 -117t69.5 -79t104 -28.5q23 0 37 3t25 7q10 4 20 10v-102l-20 -8t-24.5 -6t-37.5 -2q-84 0 -149.5 35.5t-109.5 98 t-66.5 147.5t-22.5 186z" />
<glyph unicode="&#xe16;" horiz-adv-x="878" d="M45 676q33 61 84 112q43 41 109.5 77t164.5 36q70 0 140.5 -16.5t128 -50t94.5 -89t37 -131.5v-491q0 -29 -12.5 -50.5t-28.5 -37.5q-18 -20 -41 -35h-41v573q0 70 -25.5 114t-66.5 68.5t-90 34t-95 9.5q-59 0 -103 -19.5t-73 -42.5q-35 -27 -59 -61l123 -103 q-12 -14 -21 -36q-8 -20 -14 -50t-6 -77v-267q0 -16 2 -27.5t18 -13.5h62v-102h-82q-61 0 -92 33t-31 110v267q0 39 6 68.5t14 51.5q8 25 21 43q-35 29 -62 52q-23 18 -42 33.5t-19 17.5z" />
<glyph unicode="&#xe17;" horiz-adv-x="868" d="M76 0v881h123v-123q31 39 75 71q39 27 96.5 49.5t135.5 22.5q70 0 123 -27.5t90 -71.5t55.5 -99.5t18.5 -108.5v-594h-123v532q0 123 -51.5 184.5t-174.5 61.5q-53 0 -98 -19.5t-78 -41.5q-37 -27 -69 -62v-655h-123z" />
<glyph unicode="&#xe18;" horiz-adv-x="868" d="M76 676q0 70 38 114t93 69.5t119.5 34.5t117.5 9q61 0 120 -12t106 -29q53 -18 102 -41v-102q-49 23 -102 41q-47 16 -105.5 28.5t-120.5 12.5q-31 0 -72.5 -2t-80.5 -14.5t-65.5 -38t-26.5 -70.5q0 -57 44 -77.5t109.5 -29t143 -15.5t143.5 -34.5t110 -88t44 -175.5 q0 -49 -18.5 -98t-59.5 -88t-107.5 -62.5t-163.5 -23.5q-35 0 -94 5t-115.5 31.5t-97.5 84t-41 161.5v144h123v-144q0 -68 24.5 -104.5t60.5 -55t74 -21.5t66 -3q104 0 165 52t61 122q0 90 -44 132t-109.5 59.5t-143.5 22.5t-143.5 21.5t-109.5 56.5t-44 128z" />
<glyph unicode="&#xe19;" horiz-adv-x="868" d="M76 287v594h123v-533q0 -123 51 -184.5t174 -61.5q53 0 98 19.5t78 42.5q37 27 70 61v656h123v-881h-123v123q-33 -39 -78 -70q-39 -27 -95.5 -48t-134.5 -21q-70 0 -123 27.5t-89.5 70.5t-55 97t-18.5 108z" />
<glyph unicode="&#xe1a;" horiz-adv-x="847" d="M76 301v580h123v-588q0 -35 9 -72t30.5 -67.5t55.5 -51t83 -20.5h86q49 0 84 20.5t57.5 51t33.5 67.5t11 72v588h123v-580q0 -59 -17.5 -116.5t-53 -101.5t-88 -71.5t-121.5 -27.5h-144q-70 0 -121 27.5t-84.5 71.5t-50 101.5t-16.5 116.5z" />
<glyph unicode="&#xe1b;" horiz-adv-x="847" d="M76 301v580h123v-588q0 -35 9 -72t30.5 -67.5t55.5 -51t83 -20.5h86q49 0 84 20.5t57.5 51t33.5 67.5t11 72v854h123v-846q0 -59 -17.5 -116.5t-53 -101.5t-88 -71.5t-121.5 -27.5h-144q-70 0 -121 27.5t-84.5 71.5t-50 101.5t-16.5 116.5z" />
<glyph unicode="&#xe1c;" horiz-adv-x="1024" d="M76 674q0 33 5 68.5t18.5 66.5t40 51.5t69.5 20.5h86v-103h-57q-16 0 -25.5 -12t-13.5 -29.5t-5 -35t-1 -29.5q0 -92 15 -175t34 -149q23 -76 51 -143l174 430h61l174 -430q27 53 52 147q20 78 40.5 207t30.5 322h123q-14 -211 -44 -375t-60 -277q-37 -131 -80 -229h-82 l-184 440l-185 -440h-82q-43 98 -77 211q-29 96 -53.5 216t-24.5 247z" />
<glyph unicode="&#xe1d;" horiz-adv-x="1024" d="M76 674q0 33 5 68.5t18.5 66.5t40 51.5t69.5 20.5h86v-103h-57q-16 0 -25.5 -12t-13.5 -29.5t-5 -35t-1 -29.5q0 -92 15 -175t34 -149q23 -76 51 -143l174 430h61l174 -430q35 90 62 227q23 117 42 298t19 437h123q0 -287 -28.5 -504t-63.5 -364q-41 -172 -92 -299h-82 l-184 440l-185 -440h-82q-43 98 -77 211q-29 96 -53.5 216t-24.5 247z" />
<glyph unicode="&#xe1e;" horiz-adv-x="1069" d="M14 881h117l178 -629l189 629h73l187 -629l180 629h117l-250 -881h-76l-194 664l-193 -664h-76z" />
<glyph unicode="&#xe1f;" horiz-adv-x="1150" d="M14 881h117l178 -629l189 629h73l187 -629l262 915h117l-332 -1167h-76l-194 664l-193 -664h-76z" />
<glyph unicode="&#xe20;" horiz-adv-x="878" d="M45 0v102h61q16 2 18.5 13.5t2.5 27.5v267q0 39 6 68.5t14 51.5q8 25 21 43q-35 29 -62 52q-23 18 -42 33.5t-19 17.5q33 61 84 112q43 41 109.5 77t164.5 36q70 0 140.5 -16.5t128 -50t94.5 -89t37 -131.5v-491q0 -29 -12.5 -50.5t-28.5 -37.5q-18 -20 -41 -35h-41v573 q0 70 -25.5 114t-66.5 68.5t-90 34t-95 9.5q-59 0 -103 -19.5t-73 -42.5q-35 -27 -59 -61l123 -103q-12 -14 -21 -36q-8 -20 -14 -50t-6 -77v-267q0 -78 -31 -110.5t-92 -32.5h-82z" />
<glyph unicode="&#xe21;" horiz-adv-x="868" d="M76 0v881h123v-656q33 -35 69 -61q33 -23 78 -42.5t98 -19.5q123 0 174.5 61.5t51.5 184.5v533h123v-594q0 -53 -18.5 -107.5t-55.5 -97.5t-90.5 -70.5t-122.5 -27.5q-78 0 -135.5 21.5t-96.5 47.5q-45 31 -75 70v-123h-123z" />
<glyph unicode="&#xe22;" horiz-adv-x="817" d="M45 256q0 72 32 120t70 77q45 33 103 49q-53 10 -92 35q-35 23 -63.5 60.5t-28.5 98.5q0 57 20 96t51 64t67 35t66 10q39 0 67 -3t44 -7q20 -6 33 -10v-103q-12 4 -31 10q-16 4 -38.5 7.5t-53.5 3.5q-47 0 -75 -31t-28 -72q0 -66 63.5 -104.5t162.5 -38.5v-102 q-66 0 -112 -20.5t-75.5 -50.5t-44 -63.5t-14.5 -60.5q0 -76 46 -125t175 -49q63 0 107.5 20.5t72 51t38.5 67.5t11 72v588h123v-580q0 -59 -18 -116.5t-60 -101.5t-110 -71.5t-164 -27.5t-162.5 20.5t-106.5 56t-57.5 86t-17.5 109.5z" />
<glyph unicode="&#xe23;" horiz-adv-x="724" d="M76 61v103q37 -23 80 -41q37 -16 85 -28.5t101 -12.5q102 0 143 52t41 122q0 59 -33.5 89t-83 47.5t-108.5 31.5t-108.5 41t-83 75t-33.5 136q0 53 24.5 95t64.5 70.5t92 44t105 15.5q61 0 107.5 -12t77.5 -29q37 -18 61 -41v-102q-25 23 -61 41q-31 16 -77 28.5 t-108 12.5q-61 0 -112 -31t-51 -92q0 -57 33.5 -86t83 -47.5t108.5 -33.5t108.5 -44t83 -77t33.5 -132q0 -49 -11 -98t-45 -88t-94.5 -62.5t-156.5 -23.5q-61 0 -110.5 11t-84.5 28q-41 16 -71 38z" />
<glyph unicode="&#xe24;" horiz-adv-x="878" d="M45 676q33 61 84 112q43 41 109.5 77t164.5 36q70 0 140.5 -16.5t128 -50t94.5 -89t37 -131.5v-917q0 -29 -12.5 -50.5t-28.5 -37.5q-18 -20 -41 -35h-41v999q0 70 -25.5 114t-66.5 68.5t-90 34t-95 9.5q-59 0 -103 -19.5t-73 -42.5q-35 -27 -59 -61l123 -103 q-12 -14 -21 -36q-8 -20 -14 -50t-6 -77v-267q0 -16 2 -27.5t18 -13.5h62v-102h-82q-61 0 -92 33t-31 110v267q0 39 6 68.5t14 51.5q8 25 21 43q-35 29 -62 52q-23 18 -42 33.5t-19 17.5z" />
<glyph unicode="&#xe25;" horiz-adv-x="796" d="M45 225q0 76 32 127t81 82t111.5 44.5t123.5 13.5q70 0 110 6t62 14q25 8 33 20v54q0 41 -11.5 80t-36 68.5t-63 47t-94.5 17.5q-70 0 -123 -29t-90 -63q-43 -41 -74 -93l-40 103q27 51 71 92q39 35 101.5 63.5t154.5 28.5q170 0 249 -89t79 -259v-553h-123v430 q-14 -12 -41 -20q-23 -8 -62.5 -14.5t-101.5 -6.5q-31 0 -69.5 -8t-73.5 -27.5t-58.5 -51.5t-23.5 -77q0 -39 14.5 -65.5t37 -44t52 -25.5t60.5 -8q43 0 74 10q16 4 28 10v-102q-12 -4 -28 -8q-14 -4 -33 -6t-41 -2q-139 0 -213 59t-74 182z" />
<glyph unicode="&#xe26;" horiz-adv-x="878" d="M45 0v102h61q16 2 18.5 13.5t2.5 27.5v267q0 39 6 68.5t14 51.5q8 25 21 43q-35 29 -62 52q-23 18 -42 33.5t-19 17.5q33 61 84 112q43 41 109.5 77t164.5 36q70 0 140.5 -16.5t128 -50t94.5 -89t37 -131.5v-917q0 -29 -12.5 -50.5t-28.5 -37.5q-18 -20 -41 -35h-41v999 q0 70 -25.5 114t-66.5 68.5t-90 34t-95 9.5q-59 0 -103 -19.5t-73 -42.5q-35 -27 -59 -61l123 -103q-12 -14 -21 -36q-8 -20 -14 -50t-6 -77v-267q0 -78 -31 -110.5t-92 -32.5h-82z" />
<glyph unicode="&#xe27;" horiz-adv-x="786" d="M45 82l41 102q25 -29 61 -51q31 -20 77 -35.5t108 -15.5q61 0 113.5 25.5t91 72.5t60 113.5t21.5 146.5q0 162 -81.5 250t-204.5 88q-61 0 -107.5 -12t-77.5 -29q-37 -18 -61 -41l-41 103q23 29 59 51q33 18 87.5 34.5t140.5 16.5q84 0 158.5 -30.5t130 -89t88 -144.5 t32.5 -197t-32.5 -196.5t-88 -143t-130 -87t-158.5 -29.5q-86 0 -140.5 15t-87.5 34q-37 23 -59 49z" />
<glyph unicode="&#xe28;" horiz-adv-x="888" d="M76 0v614q0 70 31.5 123.5t84 90t118 55t134.5 18.5q70 0 131 -18q41 16 78 44.5t37 76.5h123q0 -68 -40 -108t-87 -62q57 -35 92 -91.5t35 -128.5v-614h-123v614q0 45 -21.5 80t-55 58.5t-79 35t-90.5 11.5q-47 0 -91 -11.5t-77.5 -35t-55 -58.5t-21.5 -80v-245 q27 35 63 61q31 23 72 42.5t90 19.5v-123q-49 0 -90 -16.5t-72 -35.5q-37 -23 -63 -51v-266h-123z" />
<glyph unicode="&#xe29;" horiz-adv-x="847" d="M76 301v580h123v-588q0 -35 9 -72t30.5 -67.5t55.5 -51t83 -20.5h86q49 0 84 20.5t57.5 51t33.5 67.5t11 72v137h-184v102h184v347h123v-347h62v-102h-62v-129q0 -59 -17.5 -116.5t-53 -101.5t-88 -71.5t-121.5 -27.5h-144q-70 0 -121 27.5t-84.5 71.5t-50 101.5 t-16.5 116.5z" />
<glyph unicode="&#xe2a;" horiz-adv-x="796" d="M45 225q0 76 32 127t81 82t111.5 44.5t123.5 13.5q70 0 110 6t62 14q25 8 33 20v54q0 41 -11.5 80t-36 68.5t-63 47t-94.5 17.5q-70 0 -123 -29t-90 -63q-43 -41 -74 -93l-40 103q27 51 71 92q39 35 101.5 63.5t154.5 28.5q57 0 107 -12q37 16 67.5 45t30.5 70h123 q0 -61 -34 -100.5t-79 -61.5q113 -86 113 -289v-553h-123v430q-14 -12 -41 -20q-23 -8 -62.5 -14.5t-101.5 -6.5q-31 0 -69.5 -8t-73.5 -27.5t-58.5 -51.5t-23.5 -77q0 -39 14.5 -65.5t37 -44t52 -25.5t60.5 -8q43 0 74 10q16 4 28 10v-102q-12 -4 -28 -8q-14 -4 -33 -6 t-41 -2q-139 0 -213 59t-74 182z" />
<glyph unicode="&#xe2b;" horiz-adv-x="827" d="M76 0v881h123v-389l389 389h162l-295 -295q41 -8 92 -27.5t97 -57.5t77 -100.5t31 -154.5v-246h-123v217q0 86 -29 143.5t-68.5 92t-79.5 50t-63 19.5l-190 -194v-328h-123z" />
<glyph unicode="&#xe2c;" horiz-adv-x="1150" d="M14 881h117l178 -629l189 629h73l187 -629l141 491q4 12 6 25.5t2 24.5q0 39 -20.5 67.5t-44.5 46.5q-29 23 -64 35q68 18 121 51q45 27 83 70t38 104h117q0 -78 -37 -122t-82 -66q-53 -27 -117 -37q35 -16 62 -39q23 -20 42 -49t19 -68q0 -20 -6 -41l-213 -745h-76 l-194 664l-193 -664h-76z" />
<glyph unicode="&#xe2d;" horiz-adv-x="868" d="M45 317q0 68 20.5 101t81.5 33h185v-103h-133q-31 0 -31 -31q0 -43 12.5 -85t42 -75.5t78.5 -54t123 -20.5q145 0 210.5 98.5t65.5 259.5q0 78 -18 143.5t-54 113.5t-87.5 75t-116.5 27q-82 0 -131 -29t-78 -63q-33 -41 -49 -93h-121q16 80 61 144q18 27 47 52.5t67 46 t88 32.5t116 12q111 0 187.5 -43t123.5 -109.5t67.5 -148.5t20.5 -160q0 -119 -31.5 -204.5t-87 -142t-128 -83t-152.5 -26.5t-149.5 21.5t-121 64.5t-80 105.5t-28.5 141.5z" />
<glyph unicode="&#xe2e;" horiz-adv-x="868" d="M45 317q0 68 20.5 101t81.5 33h185v-103h-133q-31 0 -31 -31q0 -43 12.5 -85t42 -75.5t78.5 -54t123 -20.5q145 0 210.5 98.5t65.5 259.5q0 78 -18 143.5t-54 113.5t-87.5 75t-116.5 27q-82 0 -131 -29t-78 -63q-33 -41 -49 -93h-121q16 80 61 144q18 27 47 52.5t67 46 t88 32.5t116 12q63 0 119 -16q20 6 41.5 16t40 24.5t31 34t12.5 44.5h114q0 -35 -12 -63t-31.5 -48.5t-43 -34.5t-48.5 -22q47 -33 81 -79t55.5 -98.5t30.5 -108.5t9 -110q0 -119 -31.5 -204.5t-87 -142t-128 -83t-152.5 -26.5t-149.5 21.5t-121 64.5t-80 105.5t-28.5 141.5 z" />
<glyph unicode="&#xe2f;" horiz-adv-x="796" d="M45 881h123q23 -86 60.5 -135.5t123.5 -49.5t154.5 47.5t91.5 137.5h123v-580q0 -74 -7 -129t-29.5 -94t-62.5 -58.5t-104 -19.5v102q20 0 35.5 4.5t26 24t14.5 60t4 116.5v430q-25 -41 -59 -71q-31 -27 -76 -49.5t-111 -22.5q-129 0 -206.5 75.5t-100.5 211.5z" />
<glyph unicode="&#xe30;" horiz-adv-x="520" d="M76 287v61h114v-76q0 -27 16.5 -38t69.5 -11h168l-41 -100h-155q-86 0 -129 35t-43 129zM76 737v62h114v-76q0 -27 16.5 -38t69.5 -11h168l-41 -101h-155q-86 0 -129 35t-43 129z" />
<glyph unicode="&#xe31;" d="M-498 1198v62h115v-76q0 -27 16.5 -38t69.5 -11h358l-41 -101h-346q-86 0 -129 35t-43 129z" />
<glyph unicode="&#xe32;" horiz-adv-x="694" d="M45 717v102q25 23 59 41q29 16 71 28.5t95 12.5q59 0 121 -19.5t113 -59.5t82.5 -101.5t31.5 -147.5v-573h-122v553q0 63 -20.5 110.5t-54.5 77t-78 44t-93 14.5q-47 0 -85 -12.5t-65 -28.5q-33 -18 -55 -41z" />
<glyph unicode="&#xe33;" horiz-adv-x="694" d="M-399 1198q0 68 48 116t115 48q68 0 116 -48t48 -116t-48 -116t-116 -48t-115.5 48t-47.5 116zM-297 1198q0 -27 17.5 -44t43.5 -17q25 0 43.5 17t18.5 44q0 25 -18.5 43.5t-43.5 18.5q-27 0 -44 -18.5t-17 -43.5zM45 717v102q25 23 59 41q29 16 71 28.5t95 12.5 q59 0 121 -19.5t113 -59.5t82.5 -101.5t31.5 -147.5v-573h-122v553q0 63 -20.5 110.5t-54.5 77t-78 44t-93 14.5q-47 0 -85 -12.5t-65 -28.5q-33 -18 -55 -41z" />
<glyph unicode="&#xe34;" d="M-690 1034l41 103h532v-103h-573z" />
<glyph unicode="&#xe35;" d="M-690 1034l41 103h409v123h123v-226h-573z" />
<glyph unicode="&#xe36;" d="M-690 1034l41 103h270q-4 20 -4 30q0 55 39 94t94 39t94 -38.5t39 -94.5q0 -55 -39 -94t-94 -39h-440zM-281 1167q0 -12 9.5 -21t21.5 -9t21.5 9t9.5 21t-9.5 21.5t-21.5 9.5t-21.5 -9.5t-9.5 -21.5z" />
<glyph unicode="&#xe37;" d="M-690 1034l41 103h246v123h102v-123h61v123h123v-226h-573z" />
<glyph unicode="&#xe38;" d="M-297 -150h86q66 0 102.5 -38.5t36.5 -104.5v-143h-123v135q0 18 -12 33.5t-33 15.5h-57v102z" />
<glyph unicode="&#xe39;" d="M-543 -150h86q66 0 103 -38.5t37 -104.5q0 -61 61 -61t61 61v143h123v-151q0 -29 -6 -57.5t-26.5 -50t-56.5 -35t-95 -13.5t-95 13.5t-56.5 35t-26.5 50t-6 57.5q0 18 -12.5 33.5t-32.5 15.5h-58v102z" />
<glyph unicode="&#xe3a;" d="M-195 -150h123v-122h-123v122z" />
<glyph unicode="&#xe3f;" horiz-adv-x="786" d="M76 0v1004h196v172h117v-175q123 -6 191.5 -71.5t68.5 -161.5q0 -80 -47 -146.5t-129 -89.5q98 -16 168 -79.5t70 -165.5q0 -61 -23.5 -112.5t-66.5 -89.5t-102.5 -60.5t-129.5 -24.5v-168h-117v168h-196zM199 102h155q102 0 168 53.5t66 131.5q0 90 -66.5 142t-189.5 52 h-133v-379zM199 584h120q94 0 150.5 41t56.5 123q0 72 -48 112.5t-146 40.5h-133v-317z" />
<glyph unicode="&#xe40;" horiz-adv-x="325" d="M76 143v738h123v-738q0 -16 2 -27.5t18 -13.5h62v-102h-82q-61 0 -92 33t-31 110z" />
<glyph unicode="&#xe41;" horiz-adv-x="673" d="M76 143v738h123v-738q0 -16 2 -27.5t18 -13.5h62v-102h-82q-61 0 -92 33t-31 110zM424 143v738h123v-738q0 -16 2 -27.5t18 -13.5h62v-102h-82q-61 0 -92 33t-31 110z" />
<glyph unicode="&#xe42;" horiz-adv-x="434" d="M143 1153q0 92 66.5 135t218.5 43h186v-102h-157q-109 0 -150 -17.5t-41 -64.5q0 -27 6.5 -55.5t14.5 -64.5t14 -84t6 -112v-688q0 -16 2 -27.5t19 -13.5h61v-102h-82q-61 0 -92 33t-31 110v688q0 63 -6 111.5t-14 85.5t-14.5 66.5t-6.5 58.5z" />
<glyph unicode="&#xe43;" horiz-adv-x="557" d="M0 1249q16 29 43 51q23 18 61.5 35t98.5 17q125 0 196.5 -63.5t71.5 -201.5q0 -47 -6 -74.5t-14.5 -57t-14.5 -68.5t-6 -107v-637q0 -16 2 -27.5t19 -13.5h61v-102h-82q-61 0 -92 33t-31 110v637q0 61 6 104.5t14.5 78t14.5 64.5t6 60q0 92 -42 127t-109 35 q-41 0 -71 -16t-48 -35q-23 -23 -37 -51z" />
<glyph unicode="&#xe44;" horiz-adv-x="557" d="M0 1229v102q35 0 62.5 -11t49 -24.5t34 -27t16.5 -17.5q14 20 37 39q18 16 44.5 28.5t63.5 12.5q47 0 71.5 -23.5t36 -62.5t13.5 -91t2 -110v-901q0 -16 2 -27.5t19 -13.5h61v-102h-82q-61 0 -92 33t-31 110v901q0 20 1 55.5t-3 67t-16.5 51t-38.5 11.5 q-16 -6 -30.5 -22.5t-24.5 -35.5q-12 -23 -21 -45q-23 29 -49 52q-23 18 -54.5 34.5t-70.5 16.5z" />
<glyph unicode="&#xe45;" horiz-adv-x="694" d="M45 717v102q25 23 59 41q29 16 71 28.5t95 12.5q59 0 121 -19.5t113 -59.5t82.5 -101.5t31.5 -147.5v-876q0 -29 -12 -50.5t-28 -37.5q-18 -20 -41 -35h-41v979q0 63 -20.5 110.5t-54.5 77t-78 44t-93 14.5q-47 0 -85 -12.5t-65 -28.5q-33 -18 -55 -41z" />
<glyph unicode="&#xe46;" horiz-adv-x="817" d="M45 655q0 109 56.5 177.5t148.5 68.5q23 0 47.5 -16.5t46.5 -34.5q25 -23 49 -51q25 29 49 51q23 18 47.5 34.5t47.5 16.5q53 0 92 -21.5t63.5 -55t36.5 -79t12 -90.5v-958q0 -29 -12 -50.5t-29 -37.5q-18 -20 -41 -35h-41v1040q0 78 -20 131.5t-82 53.5 q-16 0 -37.5 -19.5t-40.5 -42.5q-23 -27 -45 -61q-25 35 -47 61q-20 23 -39.5 42.5t-36.5 19.5q-47 0 -74.5 -41t-27.5 -103q0 -39 9 -66.5t22 -43.5q12 -20 30 -33l-41 -102q-41 12 -71 45q-29 27 -50.5 75t-21.5 125z" />
<glyph unicode="&#xe47;" d="M-672 1178q0 53 20.5 85.5t49.5 50t60.5 22.5t54.5 5h163q47 0 77 9.5t50 21.5q23 12 37 31v-103q-14 -12 -37 -20q-20 -8 -49.5 -14t-77.5 -6h-143q-61 0 -81.5 -27t-20.5 -55q0 -18 15 -40t46 -22q27 0 43 9.5t27 21.5q10 12 14 31h39q4 -18 12 -31q6 -12 17.5 -21.5 t31.5 -9.5q31 0 46.5 22.5t15.5 39.5h102q0 -61 -41 -102.5t-102 -41.5q-23 0 -41 6.5t-33 14.5q-16 8 -29 20q-12 -12 -30 -20q-16 -8 -39 -14.5t-53 -6.5q-23 0 -47.5 6.5t-46 22.5t-36 44t-14.5 71z" />
<glyph unicode="&#xe48;" d="M-195 1034v226h123v-226h-123z" />
<glyph unicode="&#xe49;" d="M-549 1157v103h143q31 0 56.5 -26t25.5 -56q0 -16 12.5 -28.5t28.5 -12.5h283l-37 -103h-307q-47 0 -74.5 25.5t-27.5 56.5q0 27 -12.5 34t-24.5 7h-66z" />
<glyph unicode="&#xe4a;" d="M-590 1116q0 61 41 102.5t103 41.5q23 0 40 -6.5t29 -14.5q13 -8 23 -20q8 12 22 20q10 8 28.5 14.5t41.5 6.5q61 0 92 -32t31 -71q0 -16 6 -18t16 -2h117l-37 -103h-108q-57 0 -77 25.5t-20 56.5q0 23 -10 42.5t-31 19.5q-27 0 -39 -19.5t-12 -42.5h-41q0 20 -10 41 t-41 21q-16 0 -28.5 -19.5t-12.5 -42.5t6 -38t15 -25q8 -10 20 -19h-123q-12 8 -20 19q-8 10 -14.5 25.5t-6.5 37.5z" />
<glyph unicode="&#xe4b;" d="M-297 1096v102h102v62h123v-62h99v-102h-99v-62h-123v62h-102z" />
<glyph unicode="&#xe4c;" d="M-385 1034v43q0 76 47 129.5t133 53.5h107l-41 -103h-37q-43 0 -64.5 -24.5t-21.5 -63.5v-35h-123z" />
<glyph unicode="&#xe4d;" d="M-399 1198q0 68 48 116t115 48q68 0 116 -48t48 -116t-48 -116t-116 -48t-115.5 48t-47.5 116zM-297 1198q0 -27 17.5 -44t43.5 -17q25 0 43.5 17t18.5 44q0 25 -18.5 43.5t-43.5 18.5q-27 0 -44 -18.5t-17 -43.5z" />
<glyph unicode="&#xe4e;" d="M-469 1112q0 70 49 111t121 41q0 66 48 97.5t153 31.5v-72q-31 0 -56.5 -2t-44 -15.5t-29 -43t-10.5 -82.5q-43 0 -79.5 -15.5t-36.5 -62.5q0 -31 14 -49q8 -8 16 -17h-122q-23 39 -23 78z" />
<glyph unicode="&#xe4f;" horiz-adv-x="929" d="M76 369q0 82 30.5 152.5t83 122.5t124 83t151.5 31q82 0 152.5 -31t123 -83t83 -122.5t30.5 -152.5q0 -80 -30.5 -151t-83 -123t-123 -81.5t-152.5 -29.5q-80 0 -151.5 29.5t-124 81.5t-83 123t-30.5 151zM190 369q0 -55 21.5 -105.5t59.5 -88.5t88.5 -59.5t105.5 -21.5 q57 0 107.5 21.5t87 59.5t58 88t21.5 106q0 57 -21.5 107t-58 87t-87 58.5t-107.5 21.5q-55 0 -105.5 -21.5t-88.5 -58.5t-59.5 -87t-21.5 -107zM279 369q0 39 14 72.5t39.5 59t59.5 40t73 14.5q78 0 132 -54.5t54 -131.5q0 -39 -14 -73t-40 -59.5t-59.5 -40t-72.5 -14.5 q-78 0 -132 54.5t-54 132.5z" />
<glyph unicode="&#xe50;" horiz-adv-x="870" d="M45 369q0 80 30.5 151.5t83 123.5t124 83t151.5 31t151.5 -31t125 -83t84 -123.5t30.5 -151.5t-30.5 -151t-84 -123t-125 -81.5t-151.5 -29.5t-151.5 29.5t-124 81.5t-83 123t-30.5 151zM168 369q0 -59 20.5 -111.5t57.5 -91.5t85 -61.5t103 -22.5t104.5 22.5t85 61.5 t57 91t21.5 112q0 59 -21.5 111t-57 91t-85 61.5t-104.5 22.5t-103 -22.5t-85 -61.5t-57.5 -91t-20.5 -111z" />
<glyph unicode="&#xe51;" horiz-adv-x="868" d="M45 442q0 59 27.5 115.5t77 102t119 72t153.5 26.5q80 0 152.5 -26.5t128 -80t88 -131.5t32.5 -182q0 -92 -39 -168t-103.5 -131t-148 -86t-172.5 -31h-17t-19 2l28 96h8q57 0 118 24t110 66t80.5 100t31.5 128q0 80 -22.5 140.5t-60 99t-88 58t-107.5 19.5 q-74 0 -123 -24.5t-77.5 -58t-41 -69.5t-12.5 -61q0 -35 10 -66.5t27.5 -56t39 -39t44.5 -14.5q47 0 65.5 22.5t18.5 57.5v39h123v-43q0 -27 -9.5 -58.5t-32 -58t-63.5 -44t-102 -17.5q-43 0 -86 18.5t-79 54t-57.5 87t-21.5 118.5z" />
<glyph unicode="&#xe52;" horiz-adv-x="1083" d="M14 1065v100h31q76 0 125 -29.5t77.5 -73.5t41 -96.5t12.5 -97.5v-616q0 -51 18.5 -84t45 -52.5t57.5 -26.5t53 -7h268q27 0 57.5 7t56.5 26.5t42 52.5t16 84v227q0 27 -6 57.5t-19 57.5t-34.5 44t-52.5 17q-20 0 -36.5 -12t-29.5 -29q-14 -18 -28 -41q-12 23 -27 41 q-12 16 -28.5 28.5t-35.5 12.5q-43 0 -67.5 -27.5t-24.5 -62.5q0 -47 17.5 -73.5t42 -41t53.5 -17.5t51 -3v-102q-41 0 -90 8t-93 32.5t-74 71.5t-30 125q0 27 10.5 60.5t33 62.5t57.5 49.5t84 20.5q31 0 53.5 -9.5t38.5 -19.5q18 -12 31 -29q12 16 30 29q16 10 39 19.5 t54 9.5q55 0 94 -25.5t63.5 -65.5t35.5 -89.5t11 -98.5v-221q0 -76 -23.5 -128t-61.5 -85t-85 -47t-96 -14h-326q-45 0 -92 14t-86 47t-64.5 85t-25.5 128v616q0 33 -5 67t-22.5 61.5t-50 45t-86.5 17.5z" />
<glyph unicode="&#xe53;" horiz-adv-x="1073" d="M45 373q0 190 70.5 287.5t193.5 97.5q61 0 104.5 -29t71.5 -63q33 -41 52 -93q18 51 51 93q27 35 69.5 63.5t104.5 28.5q117 0 191.5 -95.5t74.5 -289.5q0 -86 -16.5 -156t-34.5 -117q-23 -57 -51 -100h-123q29 43 51 100q18 47 34.5 117t16.5 156q0 57 -10 108t-31.5 90 t-52.5 61.5t-70 22.5q-59 0 -106 -76.5t-47 -230.5h-103q0 141 -47 224t-106 83q-61 0 -112.5 -67.5t-51.5 -214.5q0 -57 13.5 -109.5t39 -92.5t64.5 -64.5t90 -24.5q33 0 57 10q12 4 23 10v-102q-10 -4 -23 -8q-10 -4 -26.5 -6t-32.5 -2q-63 0 -123 27.5t-105 78.5 t-72.5 123t-27.5 160z" />
<glyph unicode="&#xe54;" horiz-adv-x="1042" d="M45 358q0 70 18.5 137.5t55.5 122t91 87t124 32.5h344q33 0 62.5 6.5t52 22.5t37 48t14.5 83v270h123v-264q0 -76 -20.5 -127t-56.5 -82.5t-83 -45t-100 -13.5h-373q-43 0 -75 -24.5t-51.5 -64.5t-29.5 -89t-10 -99q0 -49 10 -95t29.5 -82t51.5 -57.5t75 -21.5h364 q-59 31 -104 74q-39 37 -70.5 93.5t-31.5 131.5h126q0 -66 25 -120t61.5 -94t79.5 -62.5t80 -22.5h103v-102h-633q-70 0 -124 29.5t-91 80t-55.5 115t-18.5 133.5z" />
<glyph unicode="&#xe55;" horiz-adv-x="1042" d="M45 358q0 70 18.5 137.5t55.5 122t91 87t124 32.5h92q-12 27 -12 62q0 68 48 116t116 48t115.5 -48.5t47.5 -115.5q0 -29 -10 -60q47 10 80 43t33 115v270h123v-264q0 -76 -20.5 -127t-56.5 -82.5t-83 -45t-100 -13.5h-373q-43 0 -75 -24.5t-51.5 -64.5t-29.5 -89 t-10 -99q0 -49 10 -95t29.5 -82t51.5 -57.5t75 -21.5h364q-59 31 -104 74q-39 37 -70.5 93.5t-31.5 131.5h126q0 -66 25 -120t61.5 -94t79.5 -62.5t80 -22.5h103v-102h-633q-70 0 -124 29.5t-91 80t-55.5 115t-18.5 133.5zM516 799q0 -27 17.5 -44.5t44.5 -17.5h6 q23 4 39 20.5t16 41.5t-18.5 43t-42.5 18q-27 0 -44.5 -18t-17.5 -43z" />
<glyph unicode="&#xe56;" horiz-adv-x="1185" d="M14 1065v102h43q102 0 168 -51t109 -133t71.5 -184.5t59.5 -204.5q23 45 59 82q33 31 87.5 56.5t140.5 25.5q92 0 164.5 -29t121.5 -79t76 -117.5t27 -143.5q0 -84 -27 -157.5t-76 -129t-121.5 -87t-164.5 -31.5q-123 0 -215.5 65.5t-133.5 175.5h123q14 -35 40 -61.5 t56.5 -45t64.5 -27.5t65 -9q53 0 101 22.5t85 62.5t58.5 96t21.5 126q0 53 -18.5 101.5t-53.5 85t-84 58t-110 21.5q-53 0 -95.5 -18.5t-72 -49t-49 -71.5t-29.5 -86h-123q-43 166 -78 287t-73.5 197.5t-90 113.5t-127.5 37z" />
<glyph unicode="&#xe57;" horiz-adv-x="1390" d="M45 373q0 94 21.5 162.5t55.5 113.5t78 66.5t89 21.5q59 0 101 -26.5t69.5 -59.5t41 -62.5t15.5 -35.5q0 4 13.5 32.5t40 62.5t69.5 61.5t102 27.5q45 0 90.5 -20.5t79 -64.5t55 -113.5t21.5 -165.5q0 -86 -15.5 -153.5t-35.5 -117.5q25 2 51.5 13.5t49 32t38 52 t15.5 79.5v618q0 45 12 93t42 87t79 64.5t125 25.5h28v-102q-53 0 -86 -13.5t-50 -36t-22.5 -51t-5.5 -61.5v-616q0 -76 -24.5 -130.5t-63.5 -89t-86 -51t-92 -16.5h-184q29 43 51 100q18 47 34.5 117t16.5 156q0 117 -31.5 189.5t-111.5 72.5q-29 0 -58.5 -15.5t-53 -46 t-38 -76.5t-14.5 -108h-82q0 53 -14.5 98t-38 78t-53 51.5t-58.5 18.5q-61 0 -102 -57.5t-41 -204.5q0 -57 13.5 -109.5t39 -92.5t64.5 -64.5t90 -24.5q33 0 57 10q12 4 23 10v-102q-10 -4 -23 -8q-10 -4 -26.5 -6t-32.5 -2q-63 0 -123 27.5t-105 78.5t-72.5 123t-27.5 160z " />
<glyph unicode="&#xe58;" horiz-adv-x="1042" d="M45 373q0 68 21.5 133t65.5 116.5t108.5 83t150.5 31.5h287q33 0 62.5 6.5t52 22.5t37 48t14.5 83v270h123v-264q0 -76 -20.5 -127t-56.5 -82.5t-83 -45t-100 -13.5h-316q-53 0 -95 -24.5t-70.5 -62.5t-43 -86t-14.5 -95q0 -57 10 -108.5t30.5 -90.5t52.5 -62.5t73 -23.5 q37 0 63.5 21.5t42.5 50.5q20 31 35 71q20 -41 51 -71q27 -29 68 -50.5t96 -21.5q25 0 52.5 7t50 24.5t37 46t14.5 73.5v54h123v-54q0 -66 -20.5 -112.5t-57.5 -77.5t-88 -45t-111 -14q-57 0 -97 15t-67 34q-31 23 -51 49q-14 -27 -37 -49q-20 -18 -50 -33.5t-77 -15.5 q-45 0 -92 24.5t-86 73.5t-63.5 121.5t-24.5 169.5z" />
<glyph unicode="&#xe59;" horiz-adv-x="1267" d="M45 373q0 94 27.5 165.5t69.5 121t93.5 74t98.5 24.5q72 0 115 -29t77 -63q23 72 68 112.5t106 40.5q45 0 82 -22.5t70 -50t62.5 -50t62.5 -22.5q47 0 69.5 68.5t22.5 175.5v249h123v-249q0 -63 -9 -125t-33 -111t-63.5 -79t-99.5 -30q-59 0 -100 22.5t-72 49.5 t-57.5 49.5t-57.5 22.5q-53 0 -82.5 -36t-29.5 -73q0 -14 2 -20l33 -113q8 -27 19 -65.5t26.5 -96t37 -134.5t50.5 -179h-115l-143 512q-6 20 -18.5 47t-32 48.5t-48 36.5t-65.5 15q-27 0 -55.5 -17t-53 -52t-41 -89.5t-16.5 -127.5q0 -55 11 -108.5t35 -93.5t60.5 -64.5 t87.5 -24.5q33 0 54 10q10 4 18 10v-102q-8 -4 -18 -8t-23.5 -6t-30.5 -2q-61 0 -118.5 27.5t-101.5 78.5t-70.5 123t-26.5 160z" />
<glyph unicode="&#xe5a;" horiz-adv-x="1042" d="M45 881h123q23 -86 60.5 -135.5t123.5 -49.5t154.5 47.5t91.5 137.5h123v-580q0 -74 -7 -129t-29.5 -94t-62.5 -58.5t-104 -19.5v102q20 0 35.5 4.5t26 24t14.5 60t4 116.5v430q-25 -41 -59 -71q-31 -27 -76 -49.5t-111 -22.5q-129 0 -206.5 75.5t-100.5 211.5zM844 0 v881h123v-881h-123z" />
<glyph unicode="&#xe5b;" horiz-adv-x="1462" d="M76 356q0 82 25.5 155t73.5 128t115.5 87t151.5 32q115 0 182.5 -43t102.5 -94q39 -61 53 -138h-118q-12 49 -39 86q-23 33 -67 59.5t-114 26.5q-53 0 -98 -23.5t-76.5 -64.5t-50 -95t-18.5 -116q0 -117 69.5 -194.5t182.5 -79.5q51 0 91 15.5t68 35.5q33 23 56 51 l106 -102l80 102l94 -102l84 102q23 -29 45 -51q20 -20 45 -35.5t54 -15.5q53 0 71.5 28.5t18.5 47.5q0 25 -6.5 44t-14.5 31q-8 14 -20 25h123q12 -8 20 -22q8 -12 14 -32t6 -46q0 -16 -6 -46t-24.5 -58.5t-55 -49t-98.5 -20.5q-39 0 -70.5 15t-54.5 34q-27 23 -47 49 l-84 -98l-94 98l-80 -98l-106 98q-25 -27 -58 -49q-29 -18 -67.5 -33.5t-89.5 -15.5q-80 0 -147.5 29.5t-119 80.5t-80 119t-28.5 143z" />
<glyph unicode="&#x2000;" horiz-adv-x="921" />
<glyph unicode="&#x2001;" horiz-adv-x="1843" />
<glyph unicode="&#x2002;" horiz-adv-x="921" />
<glyph unicode="&#x2003;" horiz-adv-x="1843" />
<glyph unicode="&#x2004;" horiz-adv-x="614" />
<glyph unicode="&#x2005;" horiz-adv-x="460" />
<glyph unicode="&#x2006;" horiz-adv-x="307" />
<glyph unicode="&#x2007;" horiz-adv-x="307" />
<glyph unicode="&#x2008;" horiz-adv-x="230" />
<glyph unicode="&#x2009;" horiz-adv-x="368" />
<glyph unicode="&#x200a;" horiz-adv-x="102" />
<glyph unicode="&#x2010;" horiz-adv-x="550" d="M76 389v103h399v-103h-399z" />
<glyph unicode="&#x2011;" horiz-adv-x="550" d="M76 389v103h399v-103h-399z" />
<glyph unicode="&#x2012;" horiz-adv-x="550" d="M76 389v103h399v-103h-399z" />
<glyph unicode="&#x2013;" horiz-adv-x="765" d="M76 389v103h614v-103h-614z" />
<glyph unicode="&#x2014;" horiz-adv-x="1155" d="M76 389v103h1003v-103h-1003z" />
<glyph unicode="&#x2018;" horiz-adv-x="274" d="M76 737v123q0 47 21.5 87t49.5 71q31 37 72 67h103q-35 -37 -62 -73q-23 -33 -42 -73t-19 -79v-123h-123z" />
<glyph unicode="&#x2019;" horiz-adv-x="274" d="M-43 737q33 37 59 74q23 33 41.5 73t18.5 79v122h123v-122q0 -47 -22.5 -88t-49.5 -72q-33 -37 -72 -66h-98z" />
<glyph unicode="&#x201c;" horiz-adv-x="499" d="M76 737v123q0 47 21.5 87t49.5 71q31 37 72 67h103q-35 -37 -62 -73q-23 -33 -42 -73t-19 -79v-123h-123zM301 737v123q0 47 21.5 87t50.5 71q31 37 71 67h103q-35 -37 -62 -73q-23 -33 -42 -73t-19 -79v-123h-123z" />
<glyph unicode="&#x201d;" horiz-adv-x="499" d="M-43 737q33 37 59 74q23 33 41.5 73t18.5 79v122h123v-122q0 -47 -22.5 -88t-49.5 -72q-33 -37 -72 -66h-98zM178 737q35 37 62 74q23 33 42 73t19 79v122h123v-122q0 -47 -22.5 -88t-49.5 -72q-33 -37 -71 -66h-103z" />
<glyph unicode="&#x2022;" horiz-adv-x="524" d="M76 444q0 39 14 73t40 59.5t59.5 40t72.5 14.5q78 0 132.5 -54.5t54.5 -132.5q0 -39 -14.5 -72.5t-40 -59t-59.5 -40t-73 -14.5q-78 0 -132 54.5t-54 131.5z" />
<glyph unicode="&#x2026;" horiz-adv-x="1134" d="M76 0v123h123v-123h-123zM506 0v123h123v-123h-123zM936 0v123h123v-123h-123z" />
<glyph unicode="&#x202f;" horiz-adv-x="368" />
<glyph unicode="&#x205f;" horiz-adv-x="460" />
<glyph unicode="&#x20ac;" horiz-adv-x="1032" d="M76 338v102h102v52v30.5t2 30.5h-104v102h121q43 174 171 271.5t314 97.5q76 0 150.5 -9t123.5 -32l-41 -102q-59 29 -113 35t-120 6q-133 0 -226.5 -72t-131.5 -195h407v-102h-428q-2 -16 -2 -30.5v-30.5v-26.5t2 -25.5h387v-102h-368q37 -123 131 -189.5t229 -66.5 q78 0 126 15.5t107 45.5l41 -102q-59 -33 -131.5 -45t-156.5 -12q-182 0 -307 93t-166 261h-119z" />
<glyph unicode="&#x2122;" horiz-adv-x="792" d="M76 969v35h239v-35h-96v-314h-43v314h-100zM362 655v349h56l121 -283l129 283h49v-349h-35v287l-133 -287h-21l-125 287v-287h-41z" />
<glyph unicode="&#x25fc;" horiz-adv-x="737" d="M0 0v737h737v-737h-737z" />
<glyph horiz-adv-x="847" d="M45 717q20 51 64 92q37 35 100 63.5t164 28.5q88 0 164 -29q20 6 45.5 17.5t47 28t36 37t14.5 49.5h123q0 -41 -16.5 -72t-41 -53.5t-54 -37t-58.5 -22.5q82 -61 126 -155.5t44 -202.5q0 -96 -26.5 -180t-76 -146.5t-122 -98.5t-164.5 -36h-103l-82 328q-6 16 -15 18 t-26 2h-41v103h82q47 0 68.5 -15.5t34.5 -46.5l82 -287q68 0 118 32t82.5 82t49 114.5t16.5 130.5q0 88 -27.5 151.5t-71.5 105.5t-99.5 61.5t-108.5 19.5q-78 0 -132.5 -29t-88.5 -63q-41 -41 -66 -93z" />
<glyph horiz-adv-x="1411" d="M45 676q33 61 84 112q43 41 109.5 77t164.5 36q70 0 140.5 -16.5t128 -50t94.5 -89t37 -131.5v-321q0 -35 6 -72t23.5 -67.5t48 -51t80.5 -20.5h86q49 0 80.5 20.5t50 51t26.5 67.5t8 72v588h123v-580q0 -59 -14 -116.5t-46 -101.5t-81 -71.5t-119 -27.5h-164 q-70 0 -114.5 27.5t-70.5 71.5t-36 101.5t-10 116.5v272q0 70 -25.5 114t-66.5 68.5t-90 34t-95 9.5q-59 0 -103 -19.5t-73 -42.5q-35 -27 -59 -61l123 -103q-12 -14 -21 -36q-8 -20 -14 -50t-6 -77v-267q0 -16 2 -27.5t18 -13.5h62v-102h-82q-61 0 -92 33t-31 110v267 q0 39 6 68.5t14 51.5q8 25 21 43q-35 29 -62 52q-23 18 -42 33.5t-19 17.5z" />
<glyph d="M-733 1178q0 53 20.5 85.5t49 50t60.5 22.5t54 5h123q47 0 77 9.5t50 21.5q23 12 37 31v-103q-14 -12 -37 -20q-20 -8 -50 -14t-77 -6h-102q-61 0 -82 -27t-21 -55q0 -18 9.5 -40t31.5 -22q23 0 36 9.5t19 21.5q8 12 9 31h39q4 -18 12 -31q6 -12 17.5 -21.5t31.5 -9.5 q31 0 46 22.5t15 39.5h103q0 -61 -41 -102.5t-103 -41.5q-23 0 -41 6.5t-32 14.5q-16 8 -29 20q-8 -12 -20 -20t-32 -14.5t-50 -6.5q-16 0 -38 6.5t-40.5 22.5t-31.5 44t-13 71z" />
<glyph d="M-406 1475v102h144q31 0 56.5 -25.5t25.5 -56.5q0 -16 12 -28.5t29 -12.5h180l-41 -102h-201q-47 0 -74.5 25.5t-27.5 56.5q0 27 -12.5 34t-24.5 7h-66z" />
<glyph d="M-487 1434q0 61 40.5 102t102.5 41q23 0 37 -6t22 -15q9 -8 13 -20q4 12 12 20t22.5 14.5t36.5 6.5q61 0 92 -32t31 -70q0 -16 6 -18.5t17 -2.5h96l-41 -102h-84q-57 0 -76.5 25.5t-19.5 56.5q0 23 -10.5 42t-30.5 19q-16 0 -23.5 -19.5t-7.5 -41.5h-41q0 20 -7 40.5 t-24 20.5q-16 0 -28.5 -19.5t-12.5 -41.5q0 -23 6.5 -38.5t14.5 -25.5t20 -18h-122q-12 8 -21 18q-8 10 -14 25.5t-6 38.5z" />
<glyph horiz-adv-x="1452" d="M45 676q33 61 84 112q43 41 109.5 77t164.5 36q49 0 100.5 -8t98.5 -25.5t87 -45t69 -64.5q8 16 27.5 40.5t52 47t79 39t111.5 16.5q59 0 120.5 -19.5t113 -59.5t83 -101.5t31.5 -147.5v-876q0 -29 -12 -50.5t-29 -37.5q-18 -20 -41 -35h-41v979q0 63 -20.5 110.5t-54 77 t-77.5 44t-93 14.5q-76 0 -118 -28t-61.5 -61.5t-22.5 -63.5t-3 -32v-917q0 -29 -12.5 -50.5t-28.5 -37.5q-18 -20 -41 -35h-41v999q0 70 -25.5 114t-66.5 68.5t-90 34t-95 9.5q-59 0 -103 -19.5t-73 -42.5q-35 -27 -59 -61l123 -103q-12 -14 -21 -36q-8 -20 -14 -50t-6 -77 v-267q0 -20 7 -29.5t19.5 -11.5t26.5 -1t29 1v-102h-82q-61 0 -92 33t-31 110v267q0 39 6 68.5t14 51.5q8 25 21 43q-35 29 -62 52q-23 18 -42 33.5t-19 17.5z" />
<glyph horiz-adv-x="1452" d="M45 0v102h61q12 2 16.5 16.5t5.5 34t0 41t-1 37.5v179q0 39 6 68.5t14 51.5q8 25 21 43q-35 29 -62 52q-23 18 -42 33.5t-19 17.5q33 61 84 112q43 41 109.5 77t164.5 36q49 0 100.5 -8t98.5 -25.5t87 -45t69 -64.5q8 16 27.5 40.5t52 47t79 39t111.5 16.5 q59 0 120.5 -19.5t113 -59.5t83 -101.5t31.5 -147.5v-876q0 -29 -12 -50.5t-29 -37.5q-18 -20 -41 -35h-41v979q0 63 -20.5 110.5t-54 77t-77.5 44t-93 14.5q-53 0 -89 -12.5t-60.5 -33t-38 -46t-19.5 -52.5q-14 -63 2 -143v-815q0 -29 -12.5 -50.5t-28.5 -37.5 q-18 -20 -41 -35h-41v999q0 70 -25.5 114t-66.5 68.5t-90 34t-95 9.5q-59 0 -103 -19.5t-73 -42.5q-35 -27 -59 -61l123 -103q-12 -14 -21 -36q-8 -20 -14 -50t-6 -77v-267q0 -78 -31 -110.5t-92 -32.5h-82z" />
</font>
</defs>
</svg>
