<?xml version="1.0" standalone="no"?>
<!DOCTYPE svg PUBLIC "-//W3C//DTD SVG 1.1//EN" "http://www.w3.org/Graphics/SVG/1.1/DTD/svg11.dtd" >
<svg xmlns="http://www.w3.org/2000/svg">
<metadata></metadata>
<defs>
<font id="edpensookregular" horiz-adv-x="0" >
<font-face units-per-em="2048" ascent="1638" descent="-410" />
<missing-glyph horiz-adv-x="716" />
<glyph unicode="&#x3b;&#x3b;For&#x20;Education&#x20;Used&#x20;Only&#x3b;&#x3b;" horiz-adv-x="1650" d="M123 717q0 150 57.5 283t155.5 231t231 155.5t285 57.5q150 0 283 -57.5t231 -155.5t155.5 -231.5t57.5 -282.5q0 -152 -57.5 -284t-155.5 -230.5t-231.5 -155.5t-282.5 -57q-152 0 -285 57t-231 155.5t-155.5 230.5t-57.5 284zM209 717q0 -133 50 -250t138 -205 t205 -138t250 -50q131 0 249 50t205 138t138 205t51 250t-51 249.5t-138 205t-205 138.5t-249 50q-133 0 -250 -50t-205 -138.5t-138 -205t-50 -249.5zM430 604v264q0 78 36 147.5t94 121t134 81t156 29.5q57 0 115.5 -15t109.5 -44t91 -70t63 -92q8 -18 -6 -27l-37 -22 q-18 -12 -27 8q-41 80 -127 130t-182 50q-66 0 -126 -23.5t-107.5 -63.5t-76 -94t-28.5 -116v-264q0 -61 28.5 -115.5t76 -94.5t107.5 -63.5t126 -23.5q104 0 186 58.5t115 150.5q6 20 25 14l38 -14q23 -8 15 -24q-49 -115 -148.5 -191t-230.5 -76q-80 0 -156 30t-134 81 t-94 120.5t-36 147.5z" />
<glyph unicode="&#x3b;&#x3b;Registered&#x3b;&#x3b;" horiz-adv-x="1650" d="M123 717q0 150 57.5 283t155.5 231t231 155.5t285 57.5q150 0 283 -57.5t231 -155.5t155.5 -231.5t57.5 -282.5q0 -152 -57.5 -284t-155.5 -230.5t-231.5 -155.5t-282.5 -57q-152 0 -285 57t-231 155.5t-155.5 230.5t-57.5 284zM209 717q0 -133 50 -250t138 -205 t205 -138t250 -50q131 0 249 50t205 138t138 205t51 250t-51 249.5t-138 205t-205 138.5t-249 50q-133 0 -250 -50t-205 -138.5t-138 -205t-50 -249.5zM514 262v942q0 20 21 21h446q63 0 119.5 -24.5t97.5 -65.5t65.5 -97.5t24.5 -119.5t-24.5 -120t-65.5 -98t-97.5 -65.5 t-119.5 -24.5l223 -348q6 -10 2 -15t-14 -5h-64q-10 0 -16 8l-229 360h-287v-348q0 -20 -21 -20h-40q-20 0 -21 20zM596 696h385q47 0 88 17.5t71.5 47.5t48 69.5t17.5 87.5q0 47 -17.5 88t-48 71.5t-71.5 48t-88 17.5h-385v-447z" />
<glyph unicode="&#x3b;&#x3b;Multiply&#x3b;&#x3b;" horiz-adv-x="759" d="M139 270q-12 14 0 31l217 217l-215 215q-18 14 0 29l29 29q14 18 29 0l215 -216l217 218q14 12 31 0l30 -31q12 -16 0 -31l-217 -217l215 -215q18 -14 0 -29l-28 -28q-14 -18 -29 0l-215 215l-217 -217q-16 -12 -31 0z" />
<glyph unicode="&#x3b;&#x3b;Divide&#x3b;&#x3b;" horiz-adv-x="983" d="M154 494v45q0 20 20 20h696q20 0 21 -20v-45q0 -20 -21 -21h-696q-20 0 -20 21zM444 260q0 29 18.5 47.5t47.5 18.5t47 -18.5t18 -47.5t-18 -47t-47 -18t-47.5 18t-18.5 47zM444 772q0 29 18.5 46.5t47.5 17.5t47 -17.5t18 -46.5t-18 -47t-47 -18t-47.5 18t-18.5 47z" />
<glyph unicode="&#x2018;&#x2018;" horiz-adv-x="454" d="M96 1004l84 307q4 20 25 20h31q20 0 16 -20l-84 -307q-4 -20 -25 -21h-30q-20 0 -17 21zM266 1004l84 307q4 20 25 20h31q20 0 16 -20l-84 -307q-4 -20 -25 -21h-30q-20 0 -17 21z" />
<glyph unicode="&#x2019;&#x2019;" horiz-adv-x="485" d="M80 1004l84 307q4 20 24 20h31q20 0 17 -20l-84 -307q-4 -20 -25 -21h-31q-20 0 -16 21zM250 1004l84 307q4 20 24 20h31q20 0 17 -20l-84 -307q-4 -20 -25 -21h-31q-20 0 -16 21z" />
<glyph unicode="&#x3b;&#x3b;Trademark&#x3b;&#x3b;" horiz-adv-x="1122" d="M92 1366v47q0 20 21 21h413v-88h-176v-342q0 -20 -20 -21h-41q-20 0 -21 21v342h-155q-20 0 -21 20zM535 1004v430h67q12 0 19 -13l170 -282l170 284q6 10 18 11h41q20 0 20 -21v-409q0 -20 -20 -21h-41q-20 0 -21 21v264l-157 -258q-4 -6 -10 -6q-8 0 -11 6l-159 264 v-270q0 -20 -21 -21h-45q-20 0 -20 21z" />
<glyph unicode="&#xe24;&#xe32;" horiz-adv-x="1495" d="M111 768q25 135 135 205.5t276 70.5q96 0 176 -30.5t131 -91.5q43 59 109 90.5t147 31.5q68 0 126.5 -22.5t100.5 -62t66.5 -97t24.5 -125.5v-1065q0 -20 -21 -20h-41q-20 0 -20 20v1065q0 100 -66.5 163t-169.5 63q-72 0 -127 -33t-84 -88q16 -49 17 -105v-1065 q0 -20 -21 -20h-41q-20 0 -20 20v1065q0 57 -22.5 99.5t-61.5 70t-91 42t-112 14.5q-59 0 -113.5 -11.5t-98.5 -34t-74.5 -57.5t-38.5 -82q27 -16 33 -38.5t6 -59.5v-537q0 -35 16 -48t45 -13h20q20 0 21 -21v-41q0 -20 -21 -20h-20q-78 0 -110.5 33t-32.5 110v543 q0 6 -6.5 34t-36.5 48z" />
<glyph unicode="&#xe26;&#xe32;" horiz-adv-x="1495" d="M51 20v41q0 20 21 21h20q29 0 45.5 13.5t16.5 47.5v543q0 6 -6.5 34t-36.5 48q25 135 135 205.5t276 70.5q96 0 176 -30.5t131 -91.5q43 59 109 90.5t147 31.5q68 0 126.5 -22.5t100.5 -62t66.5 -97t24.5 -125.5v-1065q0 -20 -21 -20h-41q-20 0 -20 20v1065 q0 100 -66.5 163t-169.5 63q-72 0 -127 -33t-84 -88q16 -49 17 -105v-1065q0 -20 -21 -20h-41q-20 0 -20 20v1065q0 57 -22.5 99.5t-61.5 70t-91 42t-112 14.5q-59 0 -113.5 -11.5t-98.5 -34t-74.5 -57.5t-38.5 -82q27 -16 33 -38.5t6 -59.5v-537q0 -78 -33 -110.5 t-111 -32.5h-20q-20 0 -21 20z" />
<glyph />
<glyph />
<glyph unicode=" "  horiz-adv-x="716" />
<glyph unicode="&#x09;" horiz-adv-x="716" />
<glyph unicode="&#xa0;" horiz-adv-x="716" />
<glyph unicode="!" horiz-adv-x="378" d="M123 43q0 35 26.5 61.5t61.5 26.5t60.5 -26.5t25.5 -61.5t-25.5 -60.5t-60.5 -25.5t-61.5 25.5t-26.5 60.5zM170 287v1126q0 20 20 21h41q20 0 21 -21v-1126q0 -20 -21 -21h-41q-20 0 -20 21z" />
<glyph unicode="&#x22;" horiz-adv-x="419" d="M92 963v450q0 20 21 21h30q20 0 21 -21v-450q0 -20 -21 -21h-30q-20 0 -21 21zM287 963v450q0 20 20 21h31q20 0 20 -21v-450q0 -20 -20 -21h-31q-20 0 -20 21z" />
<glyph unicode="#" horiz-adv-x="1435" d="M145 412l7 45q4 20 24 20h217l68 436h-215q-23 0 -19 21l9 45q4 20 22 20h217l66 414q4 20 24 21h41q20 0 17 -21l-66 -414h395l66 414q4 20 24 21h41q20 0 17 -21l-66 -414h299q23 0 19 -20l-9 -45q-4 -20 -22 -21h-301l-68 -436h299q20 0 17 -20l-6 -45q-4 -20 -25 -21 h-299l-57 -371q-4 -20 -25 -20h-41q-20 0 -16 20l57 371h-395l-58 -371q-4 -20 -24 -20h-41q-20 0 -16 20l57 371h-217q-20 0 -17 21zM475 477h395l68 436h-395z" />
<glyph unicode="$" horiz-adv-x="1046" d="M154 989q0 76 27.5 139.5t74.5 110.5t112.5 75.5t139.5 35.5v63q0 20 20 21h41q20 0 21 -21v-63q127 -12 221 -92t129 -199q2 -16 -14 -23l-43 -16q-18 -8 -23 14q-23 98 -95.5 160.5t-174.5 73.5v-549q78 -18 144.5 -48t115.5 -74t76.5 -104.5t27.5 -142.5 q0 -80 -28.5 -144.5t-77.5 -112.5t-115.5 -75.5t-142.5 -33.5v-86q0 -20 -21 -21h-41q-20 0 -20 21v86q-121 14 -211 90t-125 188q-6 16 14 23l43 16q16 4 23 -14q29 -88 96.5 -147.5t159.5 -73.5v587q-68 18 -132.5 43t-113.5 64t-78.5 94t-29.5 135zM236 989 q0 -61 21.5 -102t58 -70t86 -46t106.5 -32v529q-117 -12 -194.5 -85t-77.5 -194zM590 66q61 4 112.5 25.5t89 58t59 88t21.5 112.5t-21.5 106.5t-59 79t-90 58t-111.5 41.5v-569z" />
<glyph unicode="%" horiz-adv-x="1024" d="M154 1204q0 33 13 63.5t35.5 53t54.5 37t67 14.5q33 0 63.5 -14.5t53 -37t37 -53t14.5 -63.5q0 -35 -14.5 -66.5t-37 -54t-53.5 -36t-63 -13.5q-72 0 -121 49.5t-49 120.5zM158 20l647 1393q10 20 31 21h41q20 0 10 -21l-647 -1393q-10 -20 -31 -20h-41q-20 0 -10 20z M213 1206q0 -45 34 -77.5t77 -32.5q41 0 72.5 32.5t31.5 77.5q0 41 -31.5 73t-72.5 32q-43 0 -77 -32t-34 -73zM594 231q0 33 13.5 64t36 53.5t54 36.5t66.5 14q33 0 63.5 -14t53 -36.5t37 -53.5t14.5 -64q0 -35 -14.5 -66.5t-37 -54t-53 -36t-63.5 -13.5q-72 0 -121 49.5 t-49 120.5zM653 233q0 -45 34 -77.5t77 -32.5q41 0 72.5 32.5t31.5 77.5q0 41 -31.5 73t-72.5 32q-43 0 -77 -32t-34 -73z" />
<glyph unicode="&#x26;" horiz-adv-x="1175" d="M133 451q0 98 23.5 170.5t61.5 127t87 93.5t98 73q-14 20 -36.5 49t-43 67t-36 85t-15.5 103q0 45 16.5 87t47.5 74.5t74 52t96 19.5q51 0 94 -18.5t71.5 -49t45 -69.5t16.5 -78q0 -61 -17.5 -111.5t-46 -91.5t-67.5 -74.5t-82 -64.5l18 -27q17 -26 44.5 -67t64.5 -94.5 t74 -108.5q88 -129 201 -297q30 68 30 150q0 20 21 20h41q20 0 20 -20q0 -63 -16.5 -121t-44.5 -111l129 -199q14 -20 -8 -20h-62q-16 0 -28 18l-84 127q-63 -72 -149.5 -113.5t-186.5 -41.5q-92 0 -174 36.5t-143.5 100t-97.5 147.5t-36 177zM215 451q0 -76 28.5 -144.5 t79 -121t118 -83t143.5 -30.5q88 0 162.5 41t125.5 106l-419 629q-45 -31 -88 -65.5t-76 -81t-53.5 -108t-20.5 -142.5zM354 1219q0 -76 38 -139.5t79 -118.5q35 25 67.5 50t57.5 56t40 69t15 85q0 59 -39 104t-106 45q-68 0 -110 -46t-42 -105z" />
<glyph unicode="'" horiz-adv-x="215" d="M82 963v450q0 20 20 21h31q20 0 21 -21v-450q0 -20 -21 -21h-31q-20 0 -20 21z" />
<glyph unicode="(" horiz-adv-x="438" d="M150 674q0 201 35.5 395.5t101.5 384.5q6 20 26 21h47q20 0 15 -21q-72 -193 -108 -387.5t-36 -392.5q0 -197 39 -389t105 -387q6 -20 -15 -21h-47q-20 0 -26 21q-66 193 -101.5 385t-35.5 391z" />
<glyph unicode=")" horiz-adv-x="442" d="M125 -102q66 195 104.5 387t38.5 389q0 199 -35.5 393.5t-107.5 386.5q-6 20 14 21h47q20 0 27 -21q66 -190 101.5 -385t35.5 -395q0 -199 -35.5 -391.5t-101.5 -384.5q-6 -20 -27 -21h-47q-20 1 -14 21z" />
<glyph unicode="*" horiz-adv-x="681" d="M127 1272l10 28q8 18 25 13l164 -62v162q0 20 20 21h31q20 0 20 -21v-162l164 62q16 6 25 -13l10 -28q10 -18 -10 -27l-176 -63l122 -146q12 -12 -2 -26l-24 -19q-6 -8 -14.5 -7t-14.5 7l-117 139l-114 -139q-6 -6 -14.5 -7t-14.5 7l-24 19q-14 14 -3 26l123 146l-176 63 q-20 8 -10 27z" />
<glyph unicode="+" horiz-adv-x="942" d="M133 494v45q0 20 21 20h307v305q0 20 20 21h41q20 0 21 -21v-305h307q20 0 20 -20v-45q0 -20 -20 -21h-307v-305q0 -20 -21 -21h-41q-20 0 -20 21v305h-307q-20 0 -21 21z" />
<glyph unicode="," horiz-adv-x="311" d="M94 -225l51 368q4 20 25 21h31q20 0 16 -21l-51 -368q-4 -20 -25 -21h-30q-20 0 -17 21z" />
<glyph unicode="-" horiz-adv-x="983" d="M154 494v45q0 20 20 20h696q20 0 21 -20v-45q0 -20 -21 -21h-696q-20 0 -20 21z" />
<glyph unicode="." horiz-adv-x="284" d="M94 53q0 25 17.5 41.5t40.5 16.5q25 0 41 -16.5t16 -41.5q0 -23 -16.5 -40t-40.5 -17q-23 0 -40.5 17t-17.5 40z" />
<glyph unicode="/" horiz-adv-x="681" d="M84 -102l504 1556q6 20 26 21h41q20 0 15 -21l-504 -1556q-6 -20 -27 -21h-41q-20 0 -14 21z" />
<glyph unicode="0" horiz-adv-x="1095" d="M147 575v283q0 115 16.5 222.5t62.5 190.5t131 133t221 50q135 0 220 -50t131 -133t62.5 -190.5t16.5 -222.5v-283q0 -115 -16.5 -222t-62.5 -190t-131 -133t-220 -50t-220.5 50t-131.5 133t-62.5 190.5t-16.5 221.5zM229 575q0 -100 13.5 -192t51.5 -164t105.5 -115 t178.5 -43t178 43t105 115t51.5 164t13.5 192v283q0 100 -13.5 192.5t-51.5 164t-105.5 114.5t-177.5 43q-111 0 -178.5 -43t-105.5 -114.5t-51.5 -164t-13.5 -192.5v-283z" />
<glyph unicode="1" horiz-adv-x="471" d="M123 1249v31q0 20 20 20q59 0 106.5 24t47.5 89q0 20 20 21h41q20 0 21 -21v-1393q0 -20 -21 -20h-41q-20 0 -20 20v1209h-154q-20 0 -20 20z" />
<glyph unicode="2" horiz-adv-x="1130" d="M154 20q2 117 42 206t100 157t135 121t149 100q68 41 131 85t113 95.5t81 111.5t31 138v31q0 61 -28.5 115.5t-76 94.5t-108.5 63.5t-125 23.5q-96 0 -182 -50t-127 -130q-8 -20 -27 -8l-37 22q-14 8 -6 27q23 51 63 92t91 69.5t108.5 44t116.5 15.5q80 0 155.5 -30 t134 -81t94.5 -120.5t36 -147.5v-31q0 -96 -33 -167.5t-88 -130t-126 -106.5t-146 -95q-68 -43 -134.5 -87.5t-119 -97.5t-87 -118.5t-38.5 -149.5h772q20 0 20 -21v-41q0 -20 -20 -20h-844q-20 0 -20 20z" />
<glyph unicode="3" horiz-adv-x="1038" d="M145 250q-6 18 15 24l39 15q18 6 24 -15q35 -100 118 -151t187 -51q63 0 126 20.5t112 62.5t78.5 105.5t29.5 149.5q0 53 -24.5 109t-74.5 104.5t-123.5 80t-172.5 33.5h-14q-20 0 -21 21v41q0 20 21 20q70 2 143.5 14.5t133 42t97.5 81t38 135.5q0 57 -24 106t-67 86 t-101 57.5t-128 20.5q-115 0 -194.5 -50t-120.5 -130q-8 -20 -27 -8l-37 22q-14 8 -6 27q23 51 63.5 92t93 69.5t111 44t117.5 15.5q76 0 148.5 -23.5t128 -68.5t89 -110.5t33.5 -149.5q0 -72 -23.5 -125.5t-61 -92t-86 -63.5t-99.5 -37q63 -23 113.5 -61.5t85.5 -88 t53 -104.5t18 -110q0 -106 -36.5 -185.5t-97 -131.5t-137.5 -77.5t-157 -25.5q-66 0 -128 19.5t-113 54t-89 82t-53 104.5z" />
<glyph unicode="4" horiz-adv-x="983" d="M123 328v55q0 4 4 12l625 1018q6 10 10 15.5t14 5.5h43q20 0 21 -21v-1018h123q20 0 20 -20v-47q0 -20 -20 -21h-123v-287q0 -20 -21 -20h-41q-20 0 -20 20v287h-615q-20 0 -20 21zM217 395h541v873q-70 -113 -136.5 -219.5t-132 -213t-133 -215t-139.5 -225.5z" />
<glyph unicode="5" horiz-adv-x="1075" d="M123 774v23l20 616q0 20 21 21h768q20 0 20 -21v-47q0 -20 -20 -20h-709l-12 -351q63 72 153.5 115t188.5 43q80 0 156.5 -29.5t138 -81t98.5 -121t37 -147.5v-405q0 -78 -37 -146.5t-96 -120t-138 -82t-161 -30.5q-59 0 -122.5 13t-121 41t-102.5 68t-70 95q-8 18 6 26 l37 23q18 12 27 -8q20 -41 57 -73t83 -55.5t96.5 -35.5t99.5 -12q68 0 133 23.5t115.5 63.5t81 94t30.5 116v405q0 61 -30.5 115.5t-80 94.5t-112 63.5t-125.5 23.5q-61 0 -120.5 -21.5t-108 -58.5t-81 -86t-38.5 -106v-25q0 -20 -21 -20h-41q-20 0 -20 20z" />
<glyph unicode="6" horiz-adv-x="1095" d="M143 369v696q0 78 37 147.5t98.5 120.5t138.5 81t156 30q129 0 237 -53.5t159 -155.5q8 -18 -6 -27l-37 -22q-19 -12 -27 8q-39 84 -127 126t-199 42q-66 0 -128 -23.5t-111 -63.5t-79 -94.5t-30 -115.5v-176q61 76 154.5 121t193.5 45q80 0 157 -30t138.5 -81 t98.5 -120.5t37 -147.5v-307q0 -78 -37 -147.5t-98.5 -121t-138.5 -81t-157 -29.5t-156.5 29.5t-138 81t-98.5 121t-37 147.5zM225 369q0 -61 30 -115.5t79 -94.5t111.5 -63.5t127.5 -23.5q63 0 126 23.5t112 63.5t80 94t31 116v307q0 61 -31 115.5t-80 94.5t-112 63.5 t-126 23.5t-125.5 -23.5t-111.5 -62.5t-80 -91.5t-31 -107.5v-319z" />
<glyph unicode="7" horiz-adv-x="993" d="M113 1366v47q0 20 20 21h799q20 0 20 -21v-55q0 -4 -4 -12q-139 -143 -231 -298t-149.5 -321t-81 -343.5t-23.5 -363.5q0 -20 -21 -20h-41q-20 0 -20 20q0 162 23.5 339.5t78 351.5t143.5 336.5t222 298.5h-715q-20 0 -20 20z" />
<glyph unicode="8" horiz-adv-x="1095" d="M133 420q0 123 70.5 223t181.5 154q-92 43 -141 125t-49 184q0 72 25.5 135.5t73.5 110.5t118.5 74.5t160.5 27.5t161 -27.5t119 -74.5t73.5 -110.5t25.5 -135.5q0 -102 -49 -184t-141 -125q111 -53 181.5 -153.5t70.5 -223.5q0 -84 -36 -163t-95.5 -140.5t-140 -99 t-169.5 -37.5q-90 0 -169.5 37.5t-139 99t-95.5 140.5t-36 163zM215 420q0 -68 28.5 -132.5t78 -114.5t115 -81t136.5 -31q72 0 137.5 31t114.5 81t78 114.5t29 132.5t-29 129t-78 107t-114.5 74t-137.5 28q-76 0 -141 -28t-113.5 -75t-76 -108t-27.5 -127zM276 1106 q0 -53 19.5 -101.5t56.5 -85t92.5 -58t128.5 -21.5q74 0 129.5 21.5t92 58t56 85t19.5 101.5q0 55 -19.5 103t-58 85t-94 57.5t-125.5 20.5q-72 0 -126 -20.5t-93 -57.5t-58.5 -85t-19.5 -103z" />
<glyph unicode="9" horiz-adv-x="1085" d="M133 758v307q0 78 37 147.5t98.5 120.5t138 81t156.5 30t157 -30t138.5 -81t98 -120.5t36.5 -147.5v-696q0 -78 -36.5 -147.5t-98 -121t-138.5 -81t-157 -29.5q-129 0 -236.5 53t-158.5 156q-8 18 6 26l37 23q19 12 27 -8q39 -84 127 -126t198 -42q63 0 126 23.5 t112 63.5t79.5 94t30.5 116v174q-63 -74 -156 -119t-192 -45q-80 0 -156.5 29.5t-138 81t-98.5 121t-37 147.5zM215 758q0 -61 29.5 -115.5t79 -94.5t111.5 -63.5t128 -23.5q63 0 126 22.5t112 61.5t79.5 91t30.5 109v320q0 61 -30.5 115.5t-79.5 94.5t-111.5 63.5 t-126.5 23.5q-66 0 -128 -23.5t-111.5 -63.5t-79 -94.5t-29.5 -115.5v-307z" />
<glyph unicode=":" horiz-adv-x="329" d="M129 53q0 25 17.5 41.5t39.5 16.5q25 0 41.5 -16.5t16.5 -41.5q0 -23 -16.5 -40t-41.5 -17q-23 0 -40 17t-17 40zM129 854q0 25 17.5 41t39.5 16q25 0 41.5 -16t16.5 -41q0 -23 -16.5 -40t-41.5 -17q-23 0 -40 17t-17 40z" />
<glyph unicode=";" horiz-adv-x="329" d="M94 -225l51 368q4 20 25 21h31q20 0 16 -21l-51 -368q-4 -20 -25 -21h-30q-20 0 -17 21zM129 854q0 25 17.5 41t39.5 16q25 0 41.5 -16t16.5 -41q0 -23 -16.5 -40t-41.5 -17q-23 0 -40 17t-17 40z" />
<glyph unicode="&#x3c;" horiz-adv-x="962" d="M133 539v47q0 12 10 18l707 332q20 10 20 -12v-56q0 -12 -10 -16l-612 -289l612 -289q10 -6 10 -16v-55q0 -23 -20 -13l-707 330q-10 4 -10 19z" />
<glyph unicode="=" horiz-adv-x="983" d="M154 350v45q0 20 20 21h696q20 0 21 -21v-45q0 -20 -21 -20h-696q-20 0 -20 20zM154 606v45q0 20 20 21h696q20 0 21 -21v-45q0 -20 -21 -20h-696q-20 0 -20 20z" />
<glyph unicode="&#x3e;" horiz-adv-x="962" d="M133 203v55q0 10 10 16l613 289l-613 289q-10 4 -10 16v56q0 23 21 12l706 -332q10 -6 10 -18v-47q0 -14 -10 -19l-706 -330q-20 -10 -21 13z" />
<glyph unicode="?" horiz-adv-x="919" d="M106 1227q23 51 61 92t87 68.5t105.5 43t115.5 15.5q100 0 168 -25.5t109 -68.5t58 -98.5t17 -114.5t-16 -105.5t-43 -84.5t-59.5 -69.5t-65.5 -58.5q-27 -23 -51.5 -45t-44 -48t-31.5 -56.5t-12 -67.5v-297q0 -20 -21 -20h-41q-20 0 -20 20v297q0 51 14.5 92t38 73 t53 59.5t62.5 54.5q29 25 57.5 49t50 55t34.5 68t13 84q0 45 -13 86t-44 72.5t-83 50t-130 18.5q-98 0 -178 -50t-121 -130q-8 -20 -26 -8l-37 22q-14 8 -7 27zM373 43q0 -35 25.5 -60.5t62.5 -25.5q35 0 60.5 25.5t25.5 60.5t-25.5 61.5t-60.5 26.5q-37 0 -62.5 -26.5 t-25.5 -61.5z" />
<glyph unicode="@" horiz-adv-x="1343" d="M133 483q0 117 44 220.5t121 180.5t180.5 122t219.5 45q117 0 220.5 -41t179.5 -113t120 -172t44 -217q0 -78 -19.5 -140.5t-53.5 -108.5t-80 -70.5t-97 -24.5q-63 0 -96 43t-48 102q-84 -135 -233 -145q-59 -4 -112.5 11t-94.5 48t-64.5 83t-23.5 116t22.5 136.5 t65.5 128.5t105.5 95t142.5 37q78 0 129 -19.5t82 -56.5l12 43q6 20 25 15l39 -10q20 -6 14 -25q-41 -152 -41 -315q0 -18 1 -53.5t8 -70t24.5 -60t50.5 -25.5t62.5 21.5t51 57t34 84t12.5 103.5q0 100 -38 185t-102.5 146.5t-152.5 95.5t-189 34q-100 0 -188 -38 t-153.5 -104.5t-103.5 -154.5t-38 -189q0 -100 38 -187t103.5 -150.5t153.5 -99.5t188 -36q127 0 224 51q10 4 16 6.5t10 -6.5l25 -41q14 -18 -4 -28q-57 -29 -128 -46.5t-143 -17.5q-117 0 -220 43t-180 118t-121 176.5t-44 217.5zM422 432q0 -51 16.5 -88t45 -59.5 t66.5 -32.5t81 -6q92 6 153.5 74.5t71.5 222.5q6 92 -31.5 143t-148.5 51q-55 0 -102.5 -26.5t-81 -69.5t-52 -98.5t-18.5 -110.5z" />
<glyph unicode="A" horiz-adv-x="1140" d="M53 20l531 1422q4 10 12 10t12 -10l531 -1422q1 -4 1 -7q0 -13 -18 -13h-49q-12 0 -16 8l-211 563h-500l-211 -563q-4 -8 -16 -8h-49q-18 0 -18 13q0 3 1 7zM379 657h434l-217 580z" />
<glyph unicode="B" horiz-adv-x="1075" d="M154 20v1393q0 20 20 21h418q68 0 127 -26t104 -71t71 -104t26 -127q0 -90 -44.5 -164t-115.5 -119q113 -51 183.5 -156.5t70.5 -236.5q0 -90 -34 -168t-92.5 -136t-136 -92t-165.5 -34h-412q-20 0 -20 20zM236 88h350q72 0 134 26.5t109.5 72.5t75 108.5t27.5 134.5 t-27.5 135.5t-75 110.5t-111 73.5t-134.5 26.5h-348v-688zM236 862h356q51 0 95 19.5t78 52.5t53.5 77t19.5 95t-19.5 94t-53.5 76t-78 51.5t-95 18.5h-356v-484z" />
<glyph unicode="C" horiz-adv-x="1017" d="M154 369v696q0 78 35.5 147.5t94 120.5t134.5 81t155 30q57 0 116 -15.5t110 -44t91 -69.5t62 -92q3 -7 3 -12q0 -9 -9 -15l-37 -22q-18 -12 -26 8q-41 80 -127 130t-183 50q-66 0 -126 -23.5t-107 -63.5t-75.5 -94.5t-28.5 -115.5v-696q0 -61 28.5 -115.5t75.5 -94.5 t107.5 -63.5t125.5 -23.5q104 0 186.5 58t114.5 151q6 20 25 14l39 -14q16 -7 16 -17q0 -4 -2 -8q-49 -115 -148 -190.5t-231 -75.5q-80 0 -155.5 29.5t-134 81t-94 121t-35.5 147.5z" />
<glyph unicode="D" horiz-adv-x="1105" d="M154 20v1393q0 20 20 21h412q88 0 165.5 -34t136 -92.5t92.5 -137t34 -166.5v-574q0 -90 -34 -168t-92.5 -136t-136 -92t-165.5 -34h-412q-20 0 -20 20zM236 88h350q72 0 134 26.5t109.5 72.5t75 108.5t27.5 134.5v574q0 72 -27.5 134t-75 108t-110 73t-133.5 27h-350 v-1258z" />
<glyph unicode="E" horiz-adv-x="1075" d="M154 20v1393q0 20 20 21h819q20 0 21 -21v-47q0 -20 -21 -20h-757v-484h512q20 0 20 -20v-45q0 -20 -20 -21h-512v-688h757q20 0 21 -20v-48q0 -20 -21 -20h-819q-20 0 -20 20z" />
<glyph unicode="F" horiz-adv-x="1034" d="M154 20v1393q0 20 20 21h819q20 0 21 -21v-47q0 -20 -21 -20h-757v-484h491q20 0 21 -20v-45q0 -20 -21 -21h-491v-756q0 -20 -21 -20h-41q-20 0 -20 20z" />
<glyph unicode="G" horiz-adv-x="1085" d="M154 369v696q0 80 35.5 148.5t94 120.5t134.5 82t155 30q145 0 258 -80t158 -211q6 -18 -14 -25l-39 -14q-18 -6 -25 14q-18 59 -54 103.5t-81 73t-98 43t-105 14.5q-66 0 -126 -23.5t-107 -63.5t-75.5 -94.5t-28.5 -115.5v-698q0 -61 28.5 -115.5t75.5 -94.5 t107.5 -63.5t125.5 -23.5q51 0 105.5 12t100.5 40t81 72t51 109v125q0 43 -29.5 72.5t-72.5 29.5q-20 0 -21 21v41q0 20 21 20q78 0 131 -53t53 -131v-410q0 -20 -20 -20h-41q-20 0 -21 20v123q-61 -72 -148 -112.5t-190 -40.5q-80 0 -155.5 29.5t-134 81t-94 121 t-35.5 147.5z" />
<glyph unicode="H" horiz-adv-x="1105" d="M154 20v1393q0 20 20 21h41q20 0 21 -21v-551h696v551q0 20 20 21h41q20 0 21 -21v-1393q0 -20 -21 -20h-41q-20 0 -20 20v756h-696v-756q0 -20 -21 -20h-41q-20 0 -20 20z" />
<glyph unicode="I" horiz-adv-x="327" d="M154 20v1393q0 20 20 21h41q20 0 21 -21v-1393q0 -20 -21 -20h-41q-20 0 -20 20z" />
<glyph unicode="J" horiz-adv-x="595" d="M47 86q-6 7 -6 13q0 7 8 12l43 24q12 8 23 -4q23 -29 58.5 -44t74.5 -15q72 0 123 51t51 123v1167q0 20 20 21h41q20 0 21 -21v-1167q0 -53 -20.5 -99.5t-55.5 -81t-81 -55t-99 -20.5q-59 0 -112.5 25.5t-88.5 70.5z" />
<glyph unicode="K" horiz-adv-x="1052" d="M154 20v1393q0 20 20 21h41q20 0 21 -21v-756l575 770q6 6 14 7h70q20 0 6 -21l-412 -553l539 -840q4 -6 4 -10q0 -3 -2 -5q-4 -5 -14 -5h-64q-10 0 -16 8l-500 780l-200 -268v-500q0 -20 -21 -20h-41q-20 0 -20 20z" />
<glyph unicode="L" horiz-adv-x="972" d="M154 20v1393q0 20 20 21h41q20 0 21 -21v-1325h675q20 0 21 -20v-48q0 -20 -21 -20h-737q-20 0 -20 20z" />
<glyph unicode="M" horiz-adv-x="1146" d="M154 20v1393q0 20 20 21h43q10 0 16 -11l371 -620l371 620q6 10 18 11h41q20 0 21 -21v-1393q0 -20 -21 -20h-41q-20 0 -20 20v1244l-359 -590q-4 -6 -10 -6q-8 0 -10 6l-358 590v-1244q0 -20 -21 -20h-41q-20 0 -20 20z" />
<glyph unicode="N" horiz-adv-x="1105" d="M154 20v1393q0 20 20 21h43q6 0 9 -1t7 -10l699 -1245v1235q0 20 20 21h41q20 0 21 -21v-1393q0 -20 -21 -20h-43q-12 0 -18 12l-696 1241v-1233q0 -20 -21 -20h-41q-20 0 -20 20z" />
<glyph unicode="O" horiz-adv-x="1103" d="M152 369v696q0 78 36.5 147.5t98 120.5t138.5 81t157 30t156.5 -30t138 -81t98.5 -120.5t37 -147.5v-696q0 -78 -37 -147.5t-98.5 -121t-138 -81t-156.5 -29.5t-157 29.5t-138.5 81t-98 121t-36.5 147.5zM233 369q0 -61 30 -115.5t79 -94.5t111.5 -63.5t128.5 -23.5 q63 0 125.5 23.5t111.5 63.5t80 94t31 116v696q0 61 -31 115.5t-80 94.5t-111.5 63.5t-125.5 23.5q-66 0 -128.5 -23.5t-111.5 -63.5t-79 -94.5t-30 -115.5v-696z" />
<glyph unicode="P" horiz-adv-x="1064" d="M154 20v1393q0 20 20 21h412q88 0 165.5 -34t136 -92.5t92.5 -137t34 -166.5q0 -90 -34 -168t-92.5 -136.5t-137 -92.5t-166.5 -34h-348v-553q0 -20 -21 -20h-41q-20 0 -20 20zM236 659h348q72 0 135 27t110.5 73t75 109.5t27.5 135.5t-27.5 134t-75 108t-110 73 t-133.5 27h-350v-687z" />
<glyph unicode="Q" horiz-adv-x="1105" d="M154 369v696q0 78 36.5 147.5t98 120.5t138.5 81t157 30t156.5 -30t138 -81t98.5 -120.5t37 -147.5v-696q0 -80 -38 -148.5t-102 -122.5q35 -12 70 -19t70 -7q20 0 20 -21v-41q0 -20 -20 -20q-57 0 -111.5 14t-103.5 41q-49 -27 -104.5 -41t-110.5 -14q-80 0 -157 29.5 t-138.5 81t-98 121t-36.5 147.5zM236 369q0 -61 29.5 -115.5t78.5 -94.5t111.5 -63.5t128.5 -23.5q68 0 137 26q-61 53 -99 122t-38 149q0 20 20 20h41q20 0 21 -20q0 -70 36.5 -128.5t96.5 -99.5q59 41 96 99.5t37 128.5v696q0 61 -31 115.5t-80 94.5t-111.5 63.5 t-125.5 23.5q-66 0 -128.5 -23.5t-111.5 -63.5t-78.5 -94.5t-29.5 -115.5v-696z" />
<glyph unicode="R" horiz-adv-x="1073" d="M154 20v1393q0 20 20 21h412q88 0 165.5 -34t136 -92.5t92.5 -137t34 -166.5q0 -78 -26.5 -149t-73 -126t-110 -94t-136.5 -53l360 -562q4 -6 4 -10q0 -3 -2 -5q-4 -5 -14 -5h-64q-10 0 -16 8l-361 565h-339v-553q0 -20 -21 -20h-41q-20 0 -20 20zM236 659h348 q72 0 135 27t110.5 73t75 109.5t27.5 135.5t-27.5 134t-75 108t-110 73t-133.5 27h-350v-687z" />
<glyph unicode="S" horiz-adv-x="1054" d="M123 1063q0 90 33.5 162.5t92 123t136.5 78t168 27.5q74 0 141.5 -23.5t120.5 -65.5t93 -100.5t59 -125.5q6 -18 -15 -25l-39 -14q-20 -6 -24 14q-12 57 -44 104.5t-76 81t-99.5 53t-116.5 19.5q-72 0 -135.5 -21.5t-110.5 -61.5t-74.5 -97t-27.5 -129t29.5 -120 t78.5 -78.5t114 -50t136 -34.5q90 -20 167 -51t133.5 -78t88 -114.5t31.5 -159.5q0 -90 -34 -163t-92 -125t-137 -79.5t-167 -27.5q-72 0 -137.5 22.5t-119.5 62t-93 95t-60 121.5q-6 18 15 24l39 15q18 5 24 -15q35 -106 125 -175t207 -69q72 0 135.5 23t110.5 63.5 t74.5 98t27.5 129.5t-27.5 124t-75.5 91t-112.5 64.5t-138.5 41.5q-78 18 -155 44t-136 67t-96 102.5t-37 151.5z" />
<glyph unicode="T" horiz-adv-x="1003" d="M92 1366v47q0 20 21 21h819q20 0 20 -21v-47q0 -20 -20 -20h-369v-1326q0 -20 -20 -20h-41q-20 0 -21 20v1326h-368q-20 0 -21 20z" />
<glyph unicode="U" horiz-adv-x="1105" d="M154 369v1044q0 20 20 21h41q20 0 21 -21v-1044q0 -61 29.5 -115.5t78.5 -94.5t111.5 -63.5t128.5 -23.5q63 0 125.5 23.5t111.5 63.5t80 94t31 116v1044q0 20 20 21h41q20 0 21 -21v-1044q0 -78 -37 -147.5t-98.5 -121t-138 -81t-156.5 -29.5t-157 29.5t-138.5 81 t-98 121t-36.5 147.5z" />
<glyph unicode="V" horiz-adv-x="1140" d="M53 1413q-1 4 -1 7q0 13 18 14h49q12 0 16 -9l461 -1228l461 1228q4 8 16 9h49q18 0 18 -13q0 -3 -1 -8l-531 -1421q-4 -10 -12 -10t-12 10z" />
<glyph unicode="W" horiz-adv-x="1331" d="M53 1413q-1 4 -1 7q0 4 4 8q7 6 18 6h43q18 0 20 -15l269 -1104q68 281 122 514q25 98 47.5 196.5t43 181.5t34 141.5t19.5 81.5q4 14 14 14t14 -14q4 -23 18.5 -81.5t34 -141.5t43 -181t48.5 -197q55 -233 123 -514l268 1104q2 14 20 15h43q10 0 18 -6q5 -4 4 -9 q0 -3 -1 -6l-332 -1413q-4 -14 -14 -14t-15 14q-16 61 -35.5 144t-42 175.5t-46 188.5t-43.5 186q-51 213 -105 443q-55 -229 -106 -443q-23 -90 -45.5 -186t-44 -188.5t-42 -175.5t-34.5 -144q-4 -14 -15 -14q-10 0 -14 14z" />
<glyph unicode="X" horiz-adv-x="1011" d="M55 20l424 758l-354 635q-10 20 10 21h62q8 0 14 -11l315 -563l316 563q6 10 14 11h62q20 0 10 -21l-357 -635l426 -758q3 -7 3 -11q0 -9 -13 -9h-61q-8 0 -15 10l-385 686l-385 -686q-6 -10 -14 -10h-61q-14 0 -14 10q0 4 3 10z" />
<glyph unicode="Y" horiz-adv-x="1021" d="M66 1413q-3 7 -3 11q0 9 13 10h61q8 0 15 -11l385 -688l385 688q6 10 14 11h61q14 0 14 -10q0 -4 -3 -11l-430 -768v-625q0 -20 -21 -20h-41q-20 0 -20 20v625z" />
<glyph unicode="Z" horiz-adv-x="1054" d="M123 20v48q0 10 4 14l754 1264h-738q-20 0 -20 20v47q0 20 20 21h820q20 0 20 -21v-47q0 -6 -1 -8l-5 -10l-750 -1260h736q20 0 20 -20v-48q0 -20 -20 -20h-820q-20 0 -20 20z" />
<glyph unicode="[" horiz-adv-x="409" d="M154 -102v1556q0 20 20 21h174q20 0 21 -21v-45q0 -20 -21 -20h-112v-1426h112q20 0 21 -20v-45q0 -20 -21 -21h-174q-20 0 -20 21z" />
<glyph unicode="\" horiz-adv-x="669" d="M84 1454q-6 20 14 21h41q18 0 25 -21l493 -1556q6 -20 -16 -21h-41q-18 0 -25 21z" />
<glyph unicode="]" horiz-adv-x="409" d="M102 -57q0 20 21 20h113v1426h-113q-20 0 -21 20v45q0 20 21 21h174q20 0 20 -21v-1556q0 -20 -20 -21h-174q-20 0 -21 21v45z" />
<glyph unicode="^" horiz-adv-x="690" d="M127 1004l197 419q4 10 18 11h47q14 0 19 -11l196 -419q10 -20 -12 -21h-55q-12 0 -17 10l-155 326l-154 -326q-6 -10 -16 -10h-56q-23 0 -12 21z" />
<glyph unicode="_" horiz-adv-x="901" d="M41 -41q0 20 20 21h820q20 0 20 -21v-45q0 -20 -20 -20h-820q-20 0 -20 20v45z" />
<glyph unicode="`" horiz-adv-x="327" d="M94 1372q-4 20 17 21h30q20 0 25 -21l67 -246q4 -20 -16 -20h-31q-20 0 -24 20z" />
<glyph unicode="a" horiz-adv-x="923" d="M94 305q0 154 101.5 231.5t267.5 88.5q141 8 214 26t73 86q0 115 -74 170.5t-193 55.5q-88 0 -157.5 -30t-104.5 -89q-4 -8 -9 -13.5t-15 -1.5l-41 21q-16 8 -9 27q43 86 133.5 126.5t202.5 40.5q76 0 140.5 -19t110.5 -57t71.5 -96.5t25.5 -134.5v-717q0 -20 -20 -20 h-41q-20 0 -20 20v105q-18 -29 -49 -53.5t-70 -43t-82 -28.5t-86 -10q-76 0 -143.5 20.5t-117.5 60.5t-79 98t-29 136zM176 305q0 -57 22.5 -101t61.5 -73t91 -44t112 -15q59 0 111.5 20.5t91.5 57t61.5 86t22.5 106.5v254q-43 -23 -112 -34t-167 -15q-63 -4 -116.5 -19.5 t-93.5 -46t-62.5 -75t-22.5 -101.5z" />
<glyph unicode="b" horiz-adv-x="983" d="M154 20v1434q0 20 20 21h41q20 0 21 -21v-528q47 53 122.5 85.5t163.5 32.5q76 0 143.5 -22.5t118 -64.5t79 -103t28.5 -137v-400q0 -78 -28.5 -139t-79 -103t-118 -63.5t-143.5 -21.5q-88 0 -161.5 31.5t-124.5 84.5v-86q0 -20 -21 -20h-41q-20 0 -20 20zM236 317 q0 -57 22.5 -102t61 -77t91 -49t111.5 -17t111.5 17t91.5 49t61.5 77t22.5 102v400q0 57 -22.5 102t-61.5 77t-91.5 49.5t-111.5 17.5q-57 0 -109.5 -16.5t-91 -47.5t-62 -75t-23.5 -99v-408z" />
<glyph unicode="c" horiz-adv-x="933" d="M143 317v398q0 78 29 139t79 103t117.5 64.5t143.5 22.5q113 0 203 -48t133 -136q3 -5 3 -10q0 -9 -11 -16l-37 -23q-18 -12 -27 8q-31 70 -102.5 107t-161.5 37q-59 0 -111.5 -17.5t-91.5 -49.5t-61.5 -78t-22.5 -103v-398q0 -57 22.5 -102t61.5 -77t91.5 -49t111.5 -17 q96 0 160.5 43t91.5 121q6 20 20 16l45 -16q23 -8 15 -25q-41 -104 -124 -162.5t-208 -58.5q-76 0 -143.5 21.5t-117.5 63.5t-79 103.5t-29 138.5z" />
<glyph unicode="d" horiz-adv-x="983" d="M154 317v400q0 76 28.5 137t78.5 103t117.5 64.5t143.5 22.5q88 0 164 -32.5t123 -85.5v528q0 20 20 21h41q20 0 21 -21v-1434q0 -20 -21 -20h-41q-20 0 -20 20v86q-51 -53 -125 -84.5t-162 -31.5q-76 0 -143.5 21.5t-117.5 63.5t-78.5 103.5t-28.5 138.5zM236 317 q0 -57 22.5 -102t61 -77t91 -49t111.5 -17t111.5 17t91.5 49t61.5 77t22.5 102v408q0 55 -23.5 99t-62.5 75t-91.5 47.5t-109.5 16.5q-59 0 -111.5 -17.5t-91 -49.5t-61 -77t-22.5 -102v-400z" />
<glyph unicode="e" horiz-adv-x="983" d="M154 328v336q0 80 28.5 148.5t78.5 120.5t117.5 81.5t143.5 29.5t143.5 -29.5t118 -81.5t79 -121t28.5 -148v-91q0 -20 -21 -20h-634v-225q0 -66 24.5 -114t65.5 -80t94 -47t112 -15q96 0 146.5 26.5t85.5 59.5q14 14 29 2l30 -29q16 -15 2 -29q-16 -18 -40.5 -38.5 t-60.5 -38t-83 -28.5t-109 -11q-76 0 -144.5 22.5t-120.5 65.5t-82.5 106.5t-30.5 147.5zM236 641h573v23q0 61 -22.5 116.5t-61.5 95t-91 63.5t-112 24q-59 0 -111.5 -24t-91 -63.5t-61 -95t-22.5 -116.5v-23z" />
<glyph unicode="f" horiz-adv-x="512" d="M92 963v45q0 20 21 20h61v242q0 86 59.5 145.5t145.5 59.5h102q20 0 21 -21v-45q0 -20 -21 -20h-102q-51 0 -87 -34t-36 -85v-242h184q20 0 21 -20v-45q0 -20 -21 -21h-184v-922q0 -20 -20 -20h-41q-20 0 -21 20v922h-61q-20 0 -21 21z" />
<glyph unicode="g" horiz-adv-x="983" d="M154 317v400q0 76 28.5 137t78.5 103t117.5 64.5t143.5 22.5q86 0 162 -30.5t125 -87.5v78q0 20 20 20h41q20 0 21 -20v-275v-14v-735q0 -78 -28.5 -139.5t-79 -103.5t-118 -63.5t-143.5 -21.5q-125 0 -208 58.5t-124 162.5q-8 16 15 25l45 16q14 4 20 -16 q27 -78 91.5 -121t160.5 -43q59 0 111.5 17.5t91.5 49t61.5 76.5t22.5 103v126q-47 -57 -124 -86.5t-163 -29.5q-76 0 -143.5 21.5t-117.5 63.5t-78.5 103.5t-28.5 138.5zM236 317q0 -57 22.5 -102t61 -77t91 -49t111.5 -17q57 0 109.5 16t91.5 46t62.5 73t23.5 98v420 q0 55 -23.5 99t-62.5 75t-91 47.5t-110 16.5q-59 0 -111.5 -17.5t-91 -49.5t-61 -77t-22.5 -102v-400z" />
<glyph unicode="h" horiz-adv-x="983" d="M154 20v1434q0 20 20 21h41q20 0 21 -21v-528q47 57 122.5 87.5t163.5 30.5q76 0 143.5 -22.5t118 -64.5t79 -103t28.5 -137v-697q0 -20 -21 -20h-41q-20 0 -20 20v697q0 57 -22.5 102t-61.5 77t-91 49.5t-112 17.5q-59 0 -111.5 -17.5t-91 -49.5t-61 -78t-22.5 -103 v-695q0 -20 -21 -20h-41q-20 0 -20 20z" />
<glyph unicode="i" horiz-adv-x="348" d="M133 1249q0 29 18.5 48.5t47.5 19.5t48 -19.5t19 -48.5t-19.5 -47t-47.5 -18q-29 0 -47.5 18t-18.5 47zM158 20v984q0 20 20 20h41q20 0 21 -20v-984q0 -20 -21 -20h-41q-20 0 -20 20z" />
<glyph unicode="j" horiz-adv-x="348" d="M-47 -283q0 20 20 21h103q35 0 58.5 23.5t23.5 58.5v1184q0 20 20 20h41q20 0 21 -20v-1188q0 -68 -48.5 -116t-115.5 -48h-103q-20 0 -20 20v45zM133 1249q0 29 18.5 48.5t47.5 19.5t48 -19.5t19 -48.5t-19.5 -47t-47.5 -18q-29 0 -47.5 18t-18.5 47z" />
<glyph unicode="k" horiz-adv-x="901" d="M154 20v1434q0 20 20 21h41q20 0 21 -21v-948l397 532q6 6 14 6h70q20 0 6 -20l-258 -346l422 -658q4 -6 4 -10q0 -3 -2 -5q-4 -5 -15 -5h-63q-10 0 -16 8l-383 598l-176 -237v-349q0 -20 -21 -20h-41q-20 0 -20 20z" />
<glyph unicode="l" horiz-adv-x="368" d="M154 115v1339q0 20 20 21h41q20 0 21 -21v-1331q0 -41 40 -41q20 0 21 -21v-41q0 -20 -21 -20q-57 0 -89.5 26.5t-32.5 88.5z" />
<glyph unicode="m" horiz-adv-x="1187" d="M154 20v984q0 20 20 20h41q20 0 21 -20v-31q35 33 78.5 52t95.5 19q68 0 124 -31.5t91 -84.5q35 53 91 84.5t124 31.5q53 0 99 -20t81 -55t55.5 -81t20.5 -100v-768q0 -20 -21 -20h-41q-20 0 -20 20v768q0 72 -51.5 123.5t-122.5 51.5q-72 0 -123 -48.5t-51 -119.5v-775 q0 -20 -21 -20h-41q-20 0 -20 20v775q0 72 -51.5 120t-122.5 48q-72 0 -123 -48.5t-51 -119.5v-775q0 -20 -21 -20h-41q-20 0 -20 20z" />
<glyph unicode="n" horiz-adv-x="983" d="M154 20v984q0 20 20 20h41q20 0 21 -20v-78q45 53 121.5 85.5t164.5 32.5q76 0 143.5 -22.5t118 -64.5t79 -103t28.5 -137v-697q0 -20 -21 -20h-41q-20 0 -20 20v697q0 57 -22.5 102t-61.5 77t-91 49.5t-112 17.5q-59 0 -111.5 -17.5t-91 -49.5t-61 -78t-22.5 -103v-695 q0 -20 -21 -20h-41q-20 0 -20 20z" />
<glyph unicode="o" horiz-adv-x="962" d="M143 317v398q0 78 29 139t79 103t117.5 64.5t143.5 22.5t143.5 -22.5t117.5 -64.5t79 -103t29 -137v-400q0 -78 -29 -139t-79 -103t-117.5 -63.5t-143.5 -21.5t-143.5 21.5t-117.5 63.5t-79 103.5t-29 138.5zM225 317q0 -57 22.5 -102t61.5 -77t91.5 -49t111.5 -17 t111.5 17t91.5 49t61.5 77t22.5 102v400q0 57 -22.5 102t-61.5 77t-91.5 49.5t-111.5 17.5t-111.5 -17.5t-91.5 -49.5t-61.5 -78t-22.5 -103v-398z" />
<glyph unicode="p" horiz-adv-x="972" d="M154 -328v1332q0 20 20 20h41q20 0 21 -20v-76q51 53 124.5 84.5t161.5 31.5q76 0 143.5 -21.5t118 -63t79 -103t28.5 -139.5v-400q0 -78 -28.5 -138t-79 -102t-118 -64.5t-143.5 -22.5q-88 0 -163.5 32.5t-122.5 86.5v-437q0 -20 -21 -20h-41q-20 0 -20 20zM236 309 q0 -55 23.5 -99t62 -75t91 -47t109.5 -16q59 0 111.5 17t91.5 49t61.5 77t22.5 102v400q0 57 -22.5 102t-61.5 77t-91 49.5t-112 17.5q-59 0 -111.5 -17.5t-91 -49.5t-61 -77t-22.5 -102v-408z" />
<glyph unicode="q" horiz-adv-x="968" d="M139 317v400q0 78 29 139.5t79 103t117.5 63t143.5 21.5q88 0 161.5 -31.5t125.5 -84.5v76q0 20 20 20h41q20 0 21 -20v-1332q0 -20 -21 -20h-41q-20 0 -20 20v437q-47 -53 -123 -86t-164 -33q-76 0 -143.5 22.5t-117.5 64.5t-79 102.5t-29 137.5zM221 317 q0 -57 22.5 -102t61.5 -77t91.5 -49t111.5 -17q57 0 109.5 16t91.5 47t62.5 75t23.5 99v408q0 57 -22.5 102t-61.5 77t-91.5 49.5t-111.5 17.5t-111.5 -17.5t-91.5 -49.5t-61.5 -77t-22.5 -102v-400z" />
<glyph unicode="r" horiz-adv-x="593" d="M154 20v984q0 20 20 20h41q20 0 21 -20v-72q51 53 124.5 82.5t161.5 29.5q20 0 21 -20v-45q0 -20 -21 -21q-59 0 -111.5 -16t-91 -48t-61 -77t-22.5 -102v-695q0 -20 -21 -20h-41q-20 0 -20 20z" />
<glyph unicode="s" horiz-adv-x="907" d="M109 745q0 78 30.5 134.5t82.5 93.5t121 54t144 17q129 0 226.5 -61t130.5 -176q6 -18 -15 -25l-38 -14q-20 -6 -25 14q-18 88 -98 134.5t-181 46.5q-59 0 -112 -12.5t-94 -39t-66 -67.5t-25 -99q0 -43 25 -73.5t67 -51t96 -35t116 -26.5q74 -16 141 -36.5t118.5 -52.5 t82 -78t30.5 -111q0 -78 -30.5 -133.5t-80.5 -90t-117 -51t-140 -16.5q-70 0 -132.5 17.5t-111.5 51t-83 82.5t-46 111q-6 18 14 24l41 15q20 6 25 -15q16 -94 98 -149t195 -55q55 0 107 11t92 35.5t63.5 64.5t23.5 98q0 43 -24.5 75.5t-66.5 55t-96 39t-116 28.5 q-74 14 -141.5 32.5t-118.5 47.5t-81.5 73t-30.5 113z" />
<glyph unicode="t" horiz-adv-x="512" d="M92 963v45q0 20 21 20h123v242q0 20 20 20h41q20 0 20 -20v-242h123q20 0 21 -20v-45q0 -20 -21 -21h-123v-922q0 -20 -20 -20h-41q-20 0 -20 20v922h-123q-20 0 -21 21z" />
<glyph unicode="u" horiz-adv-x="972" d="M143 317v687q0 20 21 20h41q20 0 20 -20v-687q0 -57 22.5 -102t61.5 -77t91.5 -49t111.5 -17t111.5 17t91.5 49t61.5 78t22.5 103v685q0 20 20 20h41q20 0 21 -20v-984q0 -20 -21 -20h-41q-20 0 -20 20v89q-49 -59 -125 -89t-162 -30q-76 0 -143.5 22.5t-117.5 64.5 t-79 102.5t-29 137.5z" />
<glyph unicode="v" horiz-adv-x="854" d="M63 1004q-1 4 -1 7q0 13 18 13h49q12 0 16 -8l308 -819l307 819q4 8 16 8h49q18 0 18 -13q0 -3 -1 -7l-377 -1012q-4 -10 -12 -10t-13 10z" />
<glyph unicode="w" horiz-adv-x="1030" d="M63 1004q-1 3 -1 6q0 5 4 9q8 5 18 5h45q18 0 21 -14l186 -711l190 725q0 14 15 14q10 0 14 -14l190 -723l187 709q2 14 20 14h45q9 0 17 -5q5 -3 5 -9q0 -3 -1 -6l-256 -1004q-4 -14 -14 -14t-15 14q-35 125 -68.5 255t-62.5 237q-33 125 -61 239q-31 -115 -64 -239 q-29 -106 -61.5 -236.5t-67.5 -255.5q-4 -14 -14 -14t-15 14z" />
<glyph unicode="x" horiz-adv-x="800" d="M66 20l317 531l-270 453q-10 20 10 20h61q8 0 15 -10l231 -385l232 385q6 10 14 10h61q20 0 11 -20l-273 -453l322 -531q3 -6 3 -11q0 -9 -14 -9h-61q-8 0 -14 10l-281 465l-278 -465q-6 -10 -15 -10h-61q-13 0 -13 9q0 4 3 11z" />
<glyph unicode="y" horiz-adv-x="843" d="M63 1004q-1 4 -1 7q0 13 18 13h49q12 0 16 -8l308 -819l307 819q4 8 16 8h49q18 0 18 -13q0 -3 -1 -7l-463 -1244q-16 -47 -58 -77.5t-96 -30.5h-39q-20 0 -20 20v45q0 20 20 21h39q27 0 46.5 15.5t29.5 37.5l107 287z" />
<glyph unicode="z" horiz-adv-x="931" d="M123 20v48q0 6 6 16l616 852h-602q-20 0 -20 20v48q0 20 20 20h697q20 0 20 -20v-48q0 -8 -6 -16l-618 -852h604q20 0 20 -20v-48q0 -20 -20 -20h-697q-20 0 -20 20z" />
<glyph unicode="{" horiz-adv-x="532" d="M72 696v41q0 20 20 21q43 0 73 29.5t30 72.5v410q0 86 59 145.5t145 59.5h72q20 0 21 -21v-45q0 -20 -21 -20h-72q-51 0 -87 -34t-36 -85v-410q0 -45 -18 -82t-49 -61q31 -27 49 -64t18 -80v-491q0 -51 36 -85t87 -34h72q20 0 21 -20v-45q0 -20 -21 -21h-72 q-86 0 -145 59.5t-59 145.5v491q0 41 -28 70t-75 33q-20 0 -20 20z" />
<glyph unicode="|" horiz-adv-x="307" d="M143 -102v1556q0 20 21 21h41q20 0 20 -21v-1556q0 -20 -20 -21h-41q-20 0 -21 21z" />
<glyph unicode="}" horiz-adv-x="532" d="M61 -57q0 20 21 20h72q51 0 86.5 34t35.5 85v491q0 43 18.5 80t49.5 64q-31 25 -49.5 61.5t-18.5 81.5v410q0 51 -35.5 85t-86.5 34h-72q-20 0 -21 20v45q0 20 21 21h72q86 0 145 -59.5t59 -145.5v-410q0 -43 30 -72.5t73 -29.5q20 0 20 -21v-41q0 -20 -20 -20 q-47 -4 -75 -33t-28 -70v-491q0 -86 -59 -145.5t-145 -59.5h-72q-20 0 -21 21v45z" />
<glyph unicode="~" horiz-adv-x="694" d="M129 709q6 12 16.5 27.5t26.5 28.5t37.5 23.5t52.5 10.5q29 0 56.5 -13.5t53 -29t49 -27.5t46.5 -12q29 0 44 14t30 39q10 18 30 4l33 -22q12 -8 2 -29q-6 -12 -16 -27.5t-26.5 -29t-38 -23.5t-52.5 -10q-29 0 -58.5 12t-56 27.5t-49.5 29t-41 13.5q-29 0 -44 -14.5 t-29 -38.5q-10 -18 -31 -5l-33 23q-12 8 -2 29z" />
<glyph unicode="&#xa2;" horiz-adv-x="1017" d="M154 369v604q0 72 29.5 135t80.5 113.5t118 83t138 43.5v65q0 20 21 21h41q20 0 20 -21v-63q55 -4 108.5 -20.5t100.5 -44.5t84 -66.5t57 -88.5q8 -18 -6 -26l-37 -23q-18 -12 -26 9q-39 74 -115 122t-166 56v-1196q96 10 169 66.5t103 142.5q6 20 25 14l39 -14 q23 -8 14 -25q-47 -109 -138 -182.5t-212 -81.5v-94q0 -20 -20 -21h-41q-20 0 -21 21v96q-72 8 -138.5 41t-117.5 83t-80.5 114.5t-29.5 136.5zM236 369q0 -55 23.5 -104.5t62 -88.5t90 -65.5t108.5 -34.5v1190q-57 -10 -108.5 -36t-90 -65t-62 -88t-23.5 -104v-604z" />
<glyph unicode="&#xa3;" horiz-adv-x="1077" d="M102 641v45q0 20 21 21h172q37 119 85 235.5t108.5 206.5t133 146.5t158.5 56.5q72 0 130.5 -35t99.5 -88q12 -16 -4 -29l-29 -20q-16 -12 -29 4q-39 41 -76.5 63.5t-91.5 22.5q-66 0 -124 -48t-108 -127t-92 -180.5t-75 -207.5h438q20 0 21 -21v-45q0 -20 -21 -20h-463 q-23 -82 -40 -161t-28.5 -145.5t-17.5 -118t-6 -79.5q0 -12 9.5 -21.5t21.5 -9.5h674q20 0 20 -20v-46q0 -20 -20 -20h-674q-47 0 -80 35t-33 82q0 29 5.5 80t16.5 116.5t27.5 144.5t38.5 163h-147q-20 0 -21 20z" />
<glyph unicode="&#xa5;" horiz-adv-x="1015" d="M137 1331q-10 20 10 21h62q8 0 14 -11l316 -561l315 561q6 10 14 11h62q20 0 10 -21l-317 -563h292q20 0 21 -20v-46q0 -20 -21 -20h-335v-80h335q20 0 21 -20v-45q0 -20 -21 -21h-335v-496q0 -20 -21 -20h-41q-20 0 -20 20v496h-336q-20 0 -21 21v45q0 20 21 20h336v80 h-336q-20 0 -21 20v46q0 20 21 20h291z" />
<glyph unicode="&#xad;" horiz-adv-x="983" d="M154 494v45q0 20 20 20h696q20 0 21 -20v-45q0 -20 -21 -21h-696q-20 0 -20 21z" />
<glyph unicode="&#xb1;" horiz-adv-x="983" d="M154 139v45q0 20 20 21h696q20 0 21 -21v-45q0 -20 -21 -20h-696q-20 0 -20 20zM154 604v45q0 20 20 21h307v305q0 20 21 20h41q20 0 20 -20v-305h307q20 0 21 -21v-45q0 -20 -21 -20h-307v-305q0 -20 -20 -21h-41q-20 0 -21 21v305h-307q-20 0 -20 20z" />
<glyph unicode="&#xbc;" horiz-adv-x="1347" d="M133 1249v31q1 20 21 20q59 0 106 24t47 89q0 20 21 21h41q20 0 20 -21v-901q0 -20 -20 -20h-41q-20 0 -21 20v717h-153q-20 0 -21 20zM330 -102l504 1556q6 20 26 21h41q20 0 14 -21l-503 -1556q-6 -20 -27 -21h-41q-20 0 -14 21zM653 150v55q0 4 4 12l433 705 q6 10 10 15t14 5h43q20 0 21 -20v-705h57q20 0 20 -20v-47q0 -20 -20 -21h-57v-109q0 -20 -21 -20h-41q-20 0 -20 20v109h-422q-20 0 -21 21zM748 217h348v559q-47 -76 -77 -124t-53.5 -85t-42 -66.5t-42 -66.5t-55 -88t-78.5 -129z" />
<glyph unicode="&#xbd;" horiz-adv-x="1411" d="M133 1249v31q1 20 21 20q59 0 106 24t47 89q0 20 21 21h41q20 0 20 -21v-901q0 -20 -20 -20h-41q-20 0 -21 20v717h-153q-20 0 -21 20zM330 -102l504 1556q6 20 26 21h41q20 0 14 -21l-503 -1556q-6 -20 -27 -21h-41q-20 0 -14 21zM780 14q0 82 22.5 148.5t58.5 119 t83 91.5t96 67q47 27 88 51.5t72 54t49.5 65.5t18.5 87q0 74 -54.5 121t-138.5 47q-66 0 -115 -23.5t-77 -76.5q-4 -12 -17 -4l-47 29q-10 6 -4 20q14 33 43 58.5t63.5 42t74.5 25.5t79 9q59 0 109.5 -19.5t87.5 -52t57.5 -79t20.5 -97.5q0 -61 -21.5 -109t-57.5 -87 t-83 -70t-96 -59q-98 -55 -154.5 -130t-56.5 -155h430q14 0 14 -12v-62q0 -14 -14 -14h-516q-14 0 -15 14z" />
<glyph unicode="&#xbe;" horiz-adv-x="1574" d="M125 662q-2 12 10 16l55 20q10 2 15 -10q23 -66 77 -92.5t121 -26.5q86 0 147.5 50.5t61.5 152.5q0 76 -59 134.5t-188 62.5h-13q-14 0 -14 12v55q0 14 14 15h8q45 2 90.5 9t81 25.5t58 48t22.5 76.5q0 76 -54 119t-148 43q-150 0 -203 -104q-4 -12 -17 -4l-43 24 q-8 6 -4 19q29 68 97.5 107.5t169.5 39.5q51 0 102 -13.5t91 -43t65.5 -75.5t25.5 -112q0 -82 -44 -130t-103 -74q72 -39 109.5 -100.5t37.5 -133.5q0 -141 -82 -214t-209 -73q-100 0 -178 50.5t-100 126.5zM557 -102l504 1556q6 20 26 21h41q20 0 15 -21l-504 -1556 q-6 -20 -27 -21h-41q-20 0 -14 21zM881 150v55q0 4 4 12l432 705q6 10 10 15t14 5h43q20 0 21 -20v-705h57q20 0 21 -20v-47q0 -20 -21 -21h-57v-109q0 -20 -21 -20h-41q-20 0 -20 20v109h-422q-20 0 -20 21zM975 217h348v559q-47 -76 -76.5 -124t-53.5 -85t-42 -66.5 t-42 -66.5t-55.5 -88t-78.5 -129z" />
<glyph unicode="&#xbf;" horiz-adv-x="919" d="M102 297q0 59 16.5 105.5t43 84t59.5 68.5t66 59q27 23 51 45.5t43.5 48t32 56.5t12.5 67v297q0 20 20 21h41q20 0 21 -21v-297q0 -53 -14.5 -93t-38 -71.5t-53 -59t-62.5 -54.5q-29 -25 -57.5 -49.5t-50 -55t-35 -67.5t-13.5 -84q0 -45 13.5 -86t44 -73t83 -50 t130.5 -18q98 0 178 50t121 130q8 20 26 8l37 -22q14 -8 6 -27q-23 -51 -60.5 -92t-86.5 -69t-106.5 -43t-114.5 -15q-100 0 -168 25.5t-109 68.5t-58.5 98.5t-17.5 114.5zM383 1393q0 35 25.5 60.5t60.5 25.5q37 0 62.5 -25.5t25.5 -60.5t-25.5 -61.5t-62.5 -26.5 q-35 0 -60.5 26.5t-25.5 61.5z" />
<glyph unicode="&#xe01;" horiz-adv-x="983" d="M111 768q25 135 135 205.5t276 70.5q76 0 143.5 -19t118 -57t79 -96.5t28.5 -134.5v-717q0 -20 -21 -20h-41q-20 0 -20 20v717q0 57 -22.5 99.5t-61.5 70t-91 42t-112 14.5q-59 0 -113.5 -11.5t-98.5 -34t-74.5 -57.5t-38.5 -82q27 -16 33 -38.5t6 -59.5v-660 q0 -20 -21 -20h-41q-20 0 -20 20v666q0 6 -6.5 34t-36.5 48z" />
<glyph unicode="&#xe02;" horiz-adv-x="837" d="M117 940q29 47 75 75.5t103 28.5q86 0 145.5 -59t59.5 -145q0 -84 -55.5 -139.5t-133.5 -90.5q-53 -23 -75.5 -55.5t-22.5 -85.5v-203q0 -47 17.5 -88t48 -71.5t71.5 -48t88 -17.5t88 17.5t72 48t48.5 71.5t17.5 88v738q0 20 20 20h41q20 0 20 -20v-738 q0 -63 -24.5 -119.5t-65.5 -97.5t-97 -65.5t-120 -24.5q-63 0 -119.5 24.5t-97.5 65.5t-65.5 97.5t-24.5 119.5v203q0 82 33 131t115 84q57 25 98 63.5t41 92.5q0 51 -36 87t-87 36q-35 0 -63.5 -17.5t-45.5 -46.5q-10 -18 -26 -8l-35 22q-18 10 -8 27z" />
<glyph unicode="&#xe03;" horiz-adv-x="839" d="M80 979q-12 12 2 27l29 28q12 16 28 0l84 -84l94 94q78 0 131.5 -54t53.5 -132q0 -84 -55.5 -139t-133.5 -90q-53 -23 -75.5 -64t-22.5 -96v-203q0 -47 17.5 -88t48 -71.5t71.5 -48t88 -17.5t88 17.5t72 48t48.5 71.5t17.5 88v738q0 20 20 20h41q20 0 21 -20v-738 q0 -63 -25 -119.5t-66 -97.5t-97 -65.5t-120 -24.5q-63 0 -119.5 24.5t-97.5 65.5t-65.5 97.5t-24.5 119.5v203q0 80 33 139.5t115 93.5q57 25 98 64t41 92q0 35 -20.5 62.5t-53.5 37.5l-123 -122z" />
<glyph unicode="&#xe04;" horiz-adv-x="983" d="M154 20v715q0 78 28.5 136.5t78.5 96.5t117.5 57t143.5 19t143.5 -19t118 -57t79 -96.5t28.5 -134.5v-717q0 -20 -21 -20h-41q-20 0 -20 20v717q0 57 -22.5 99.5t-61.5 70t-91 42t-112 14.5q-59 0 -111.5 -14.5t-91 -42t-61 -70.5t-22.5 -101v-166q41 57 104 92t141 35 q20 0 21 -20v-41q0 -20 -21 -21q-51 0 -95 -19.5t-78 -53t-53 -77.5t-19 -95v-349q0 -20 -21 -20h-41q-20 0 -20 20z" />
<glyph unicode="&#xe05;" horiz-adv-x="983" d="M154 20v715q0 123 68.5 196t176.5 99l123 -141l123 141q109 -27 177.5 -98.5t68.5 -194.5v-717q0 -20 -21 -20h-41q-20 0 -20 20v717q0 74 -38 123t-99 76l-150 -172l-149 172q-61 -27 -99 -76t-38 -125v-166q41 57 104 92t141 35q20 0 21 -20v-41q0 -20 -21 -21 q-51 0 -95 -19.5t-78 -53t-53 -77.5t-19 -95v-349q0 -20 -21 -20h-41q-20 0 -20 20z" />
<glyph unicode="&#xe06;" horiz-adv-x="983" d="M92 20v41q0 20 21 21q41 0 41 41v346q0 80 32.5 139.5t114.5 93.5q57 25 98 64t41 92q0 35 -20.5 62.5t-52.5 37.5l-123 -122l-144 143q-12 12 2 27l29 28q12 16 29 0l84 -84l94 94q78 0 131 -54t53 -132q0 -84 -55 -139t-133 -90q-53 -23 -75.5 -64t-22.5 -96v-113 q0 -57 29.5 -109t76.5 -91t106.5 -61.5t118.5 -22.5q119 0 180.5 71.5t61.5 186.5v674q0 20 20 20h41q20 0 21 -20v-674q0 -154 -85 -247t-239 -93q-96 0 -184 45t-147 117v-37q0 -61 -33 -88t-90 -27q-20 0 -21 20z" />
<glyph unicode="&#xe07;" horiz-adv-x="729" d="M78 596q-12 18 4 29l31 24q18 14 28 -2l340 -506l72 760q2 41 -41 41q-20 0 -20 21v41q0 20 20 20q57 0 93 -26.5t30 -88.5l-82 -891q-4 -18 -21 -18h-40q-12 0 -19 10z" />
<glyph unicode="&#xe08;" horiz-adv-x="868" d="M94 850q35 98 123 146t211 48q76 0 140.5 -19t110.5 -57t71.5 -96.5t25.5 -134.5v-717q0 -20 -20 -20h-41q-20 0 -21 20v267q0 51 -19.5 95t-53 78t-77.5 53t-95 19q-20 0 -21 21v41q1 20 21 20q78 0 141 -34.5t104 -92.5v250q0 115 -73.5 170.5t-192.5 55.5 q-92 0 -158.5 -34t-97.5 -106q-8 -18 -27 -12l-39 12q-18 6 -12 27z" />
<glyph unicode="&#xe09;" horiz-adv-x="952" d="M82 512v41q0 20 20 20q78 0 111 -32.5t33 -110.5v-100q0 -115 64.5 -186.5t183.5 -71.5q57 0 109 21.5t91 59t61.5 87t22.5 104.5v393q0 57 -22.5 99.5t-61.5 70t-91 42t-111 14.5q-102 0 -180.5 -40t-100.5 -130q-6 -18 -25 -15l-41 6q-18 2 -14 25q12 59 45 103t81 74 t108.5 44t126.5 14q76 0 143 -19t117.5 -57t79 -96.5t28.5 -134.5v-614q0 -41 41 -41h21q20 0 20 -21v-41q0 -20 -20 -20h-21q-57 0 -90 26.5t-33 88.5v16q-51 -68 -123.5 -104.5t-160.5 -36.5q-154 0 -242 93t-88 247v100q0 35 -16.5 48.5t-45.5 13.5q-20 0 -20 20z" />
<glyph unicode="&#xe0a;" horiz-adv-x="837" d="M117 940q29 47 75 75.5t103 28.5q86 0 145.5 -59t59.5 -145q0 -84 -55.5 -139.5t-133.5 -90.5q-53 -23 -75.5 -55.5t-22.5 -85.5v-203q0 -47 17.5 -88t48 -71.5t71.5 -48t88 -17.5t88 17.5t72 48t48.5 71.5t17.5 88v355q0 66 -31 106.5t-96 40.5q-20 0 -21 20v41 q0 20 21 21q66 0 96.5 35t30.5 98v164q0 20 20 20h41q20 0 20 -20v-164q0 -123 -71 -178q72 -59 71 -184v-355q0 -63 -24.5 -119.5t-65.5 -97.5t-97 -65.5t-120 -24.5q-63 0 -119.5 24.5t-97.5 65.5t-65.5 97.5t-24.5 119.5v203q0 82 33 131t115 84q57 25 98 63.5t41 92.5 q0 51 -36 87t-87 36q-35 0 -63.5 -17.5t-45.5 -46.5q-10 -18 -26 -8l-35 22q-18 11 -8 27z" />
<glyph unicode="&#xe0b;" horiz-adv-x="839" d="M80 979q-12 12 2 27l29 28q12 16 28 0l84 -84l94 94q78 0 131.5 -54t53.5 -132q0 -84 -55.5 -139t-133.5 -90q-53 -23 -75.5 -64t-22.5 -96v-203q0 -47 17.5 -88t48 -71.5t71.5 -48t88 -17.5t88 17.5t72 48t48.5 71.5t17.5 88v355q0 66 -31 106.5t-96 40.5q-20 0 -21 20 v41q0 20 21 21q63 0 95 36t32 97v164q0 20 20 20h41q20 0 21 -20v-164q0 -123 -72 -178q72 -59 72 -184v-355q0 -63 -25 -119.5t-66 -97.5t-97 -65.5t-120 -24.5q-63 0 -119.5 24.5t-97.5 65.5t-65.5 97.5t-24.5 119.5v203q0 80 33 139.5t115 93.5q57 25 98 64t41 92 q0 35 -20.5 62.5t-53.5 37.5l-123 -122z" />
<glyph unicode="&#xe0c;" horiz-adv-x="1351" d="M111 768q25 135 115.5 205.5t256.5 70.5q76 0 140.5 -19t110.5 -57t71.5 -96.5t25.5 -134.5v-450q0 -57 18.5 -97t47.5 -66t62.5 -37t64.5 -11q66 0 110 39t44 145v744q0 20 20 20h41q20 0 21 -20v-744q0 -78 -20.5 -129t-54.5 -82t-76 -43t-85 -12q-49 0 -104.5 23.5 t-90.5 70.5q-4 -47 -37.5 -67.5t-82.5 -20.5q-20 0 -21 20v41q0 20 21 21q41 0 41 41v614q0 115 -74 170.5t-193 55.5t-193.5 -45.5t-92.5 -139.5q27 -16 33 -38.5t6 -59.5v-537q0 -35 16 -48t45 -13h20q20 0 21 -21v-41q0 -20 -21 -20h-20q-78 0 -110.5 33t-32.5 110v543 q0 6 -6.5 34t-36.5 48z" />
<glyph unicode="&#xe0d;" horiz-adv-x="1351" d="M111 768q25 135 115.5 205.5t256.5 70.5q76 0 140.5 -19t110.5 -57t71.5 -96.5t25.5 -134.5v-532q0 -72 50.5 -102.5t122.5 -30.5t123 30.5t51 102.5v799q0 20 20 20h41q20 0 21 -20v-994q0 -106 -75 -160.5t-181 -54.5q-68 0 -123.5 21.5t-89.5 64.5q-14 18 4 29l32 22 q20 14 31 -4q23 -29 60.5 -40t85.5 -11q72 0 123 31t51 102v29q-72 -49 -174 -49q-106 0 -180 54t-74 161v532q0 115 -74 170.5t-193 55.5t-193.5 -45.5t-92.5 -139.5q27 -16 33 -38.5t6 -59.5v-537q0 -35 16 -48t45 -13h20q20 0 21 -21v-41q0 -20 -21 -20h-20 q-78 0 -110.5 33t-32.5 110v543q0 6 -6.5 34t-36.5 48z" />
<glyph unicode="&#xe0e;" horiz-adv-x="983" d="M51 20v41q0 20 21 21h20q29 0 45.5 13.5t16.5 47.5v543q0 6 -6.5 34t-36.5 48q25 135 135 205.5t276 70.5q76 0 143.5 -19t118 -57t79 -96.5t28.5 -134.5v-1065q0 -20 -21 -20h-41q-20 0 -20 20v9q-4 41 -32.5 64.5t-69.5 23.5h-431q-20 0 -20 20v47q0 20 20 21h431 q59 0 102 -31v911q0 57 -22.5 99.5t-61.5 70t-91 42t-112 14.5q-59 0 -113.5 -11.5t-98.5 -34t-74.5 -57.5t-38.5 -82q27 -16 33 -38.5t6 -59.5v-537q0 -78 -33 -110.5t-111 -32.5h-20q-20 0 -21 20z" />
<glyph unicode="&#xe0f;" horiz-adv-x="983" d="M51 20v41q0 20 21 21h20q29 0 45.5 13.5t16.5 47.5v543q0 6 -6.5 34t-36.5 48q25 135 135 205.5t276 70.5q76 0 143.5 -19t118 -57t79 -96.5t28.5 -134.5v-1065q0 -20 -21 -20h-41q-20 0 -20 20q0 43 -29.5 73t-72.5 30t-73 -30t-30 -73q0 -20 -20 -20h-41q-20 0 -21 20 q0 43 -29.5 73t-72.5 30h-144q-20 0 -20 20v41q0 20 20 21h144q43 0 80 -18.5t63 -49.5q25 31 62 49.5t82 18.5q59 0 102 -31v911q0 57 -22.5 99.5t-61.5 70t-91 42t-112 14.5q-59 0 -113.5 -11.5t-98.5 -34t-74.5 -57.5t-38.5 -82q27 -16 33 -38.5t6 -59.5v-537 q0 -78 -33 -110.5t-111 -32.5h-20q-20 0 -21 20z" />
<glyph unicode="&#xe10;" horiz-adv-x="804" d="M88 936q-12 19 6 31q47 37 122 52t151 15h208q47 0 87 22.5t61 57.5q12 18 27 6l36 -30q14 -14 2 -29q-66 -90 -172 -107q45 -39 71 -95t26 -132v-707q0 -20 -21 -20h-41q-20 0 -20 20v277q-2 49 -22.5 91t-53.5 75t-77 51t-93 18q-20 0 -20 21v41q0 20 20 20 q78 0 141.5 -34.5t104.5 -92.5v240q0 111 -71 166t-193 59q-63 0 -127 -11t-99 -46q-12 -12 -28 6zM201 -184q0 20 20 20h96q33 0 55.5 12.5t22.5 42.5q0 20 21 21h41q20 0 20 -21v-6q2 -29 23.5 -39t52.5 -10q33 0 55.5 12.5t22.5 42.5v48q0 20 20 20h41q20 0 21 -20v-48 q0 -66 -47.5 -101.5t-112.5 -35.5q-74 0 -119 41q-45 -41 -117 -41h-96q-20 0 -20 21v41z" />
<glyph unicode="&#xe11;" horiz-adv-x="962" d="M80 979q-12 12 2 27l29 28q12 16 28 0l84 -84l94 94q57 0 102.5 -31.5t67.5 -82.5q41 55 84 84.5t105 29.5q55 0 93 -15t60.5 -41.5t31.5 -62.5t9 -75v-830q0 -20 -20 -20h-41q-20 0 -21 20v830q0 47 -22.5 80t-89.5 33q-61 0 -101 -52.5t-94 -140.5q-25 -47 -69.5 -83 t-98.5 -58q-53 -23 -75.5 -64t-22.5 -96v-449q0 -20 -20 -20h-41q-20 0 -21 20v449q0 80 33 139.5t115 93.5q57 25 98 64t41 92q0 35 -20.5 62.5t-53.5 37.5l-123 -122z" />
<glyph unicode="&#xe12;" horiz-adv-x="1372" d="M154 246v489q0 123 60 196t165 99l123 -141l123 141q104 -27 165.5 -99.5t61.5 -193.5v-450q0 -57 18.5 -97t47 -66t62.5 -37t64 -11q66 0 110 39t44 145v744q0 20 21 20h41q20 0 20 -20v-744q0 -78 -20.5 -129t-54.5 -82t-76 -43t-85 -12q-49 0 -104 23.5t-90 70.5 q-4 -47 -38 -67.5t-83 -20.5q-20 0 -20 20v41q0 20 20 21q41 0 41 41v614q0 74 -32.5 122t-88.5 75l-147 -170l-148 170q-55 -27 -86.5 -76t-31.5 -123v-489q0 -72 31.5 -126t111.5 -54q45 0 69.5 17t43.5 48q8 12 22 4l43 -24q12 -8 2 -25q-29 -51 -72 -73.5t-108 -22.5 q-115 0 -170 74.5t-55 181.5z" />
<glyph unicode="&#xe13;" horiz-adv-x="1351" d="M111 768q25 135 115.5 205.5t256.5 70.5q76 0 140.5 -19t110.5 -57t71.5 -96.5t25.5 -134.5v-477q0 -106 49.5 -147t114.5 -41q72 0 125.5 47t57.5 155v730q0 20 20 20h41q20 0 21 -20v-881q0 -41 40 -41h21q20 0 20 -21v-41q0 -20 -20 -20h-21q-102 0 -120 82 q-72 -92 -185 -92q-43 0 -87 13t-78.5 45t-57 83t-22.5 129v477q0 115 -74 170.5t-193 55.5t-193.5 -45.5t-92.5 -139.5q27 -16 33 -38.5t6 -59.5v-537q0 -35 16 -48t45 -13h20q20 0 21 -21v-41q0 -20 -21 -20h-20q-78 0 -110.5 33t-32.5 110v543q0 6 -6.5 34t-36.5 48z" />
<glyph unicode="&#xe14;" horiz-adv-x="976" d="M127 246v489q0 78 30.5 136.5t83 96.5t121 57t144.5 19t144.5 -19t120.5 -57t83 -96.5t31 -134.5v-717q0 -20 -21 -20h-41q-20 0 -20 20v717q0 57 -24.5 99.5t-65.5 70t-94.5 42t-112.5 14.5t-112.5 -14.5t-94.5 -42t-65.5 -70.5t-24.5 -101v-489q0 -72 51 -123t123 -51 q39 0 75 15t58 44q10 12 23 4l43 -24q14 -8 2 -25q-35 -45 -88.5 -70.5t-112.5 -25.5q-53 0 -99 20.5t-81 55t-55.5 81t-20.5 99.5z" />
<glyph unicode="&#xe15;" horiz-adv-x="976" d="M127 246v489q0 123 73.5 196t182.5 99l123 -141l133 141q109 -27 177.5 -98.5t68.5 -194.5v-717q0 -20 -21 -20h-41q-20 0 -20 20v717q0 74 -38 123t-99 76l-160 -172l-150 172q-61 -27 -104 -76t-43 -125v-489q0 -72 51 -123t123 -51q39 0 75 15t58 44q10 12 23 4 l43 -24q14 -8 2 -25q-35 -45 -88.5 -70.5t-112.5 -25.5q-53 0 -99 20.5t-81 55t-55.5 81t-20.5 99.5z" />
<glyph unicode="&#xe16;" horiz-adv-x="983" d="M111 768q25 135 135 205.5t276 70.5q76 0 143.5 -19t118 -57t79 -96.5t28.5 -134.5v-717q0 -20 -21 -20h-41q-20 0 -20 20v717q0 57 -22.5 99.5t-61.5 70t-91 42t-112 14.5q-59 0 -113.5 -11.5t-98.5 -34t-74.5 -57.5t-38.5 -82q27 -16 33 -38.5t6 -59.5v-537 q0 -35 16 -48t45 -13h20q20 0 21 -21v-41q0 -20 -21 -20h-20q-78 0 -110.5 33t-32.5 110v543q0 6 -6.5 34t-36.5 48z" />
<glyph unicode="&#xe17;" horiz-adv-x="983" d="M72 963v41q0 20 20 20q78 0 111 -33t33 -110v-19q53 78 139 125t186 47q154 0 242 -93t88 -247v-674q0 -20 -21 -20h-41q-20 0 -20 20v674q0 115 -64.5 186.5t-183.5 71.5q-57 0 -114.5 -21.5t-103.5 -59t-75.5 -88t-31.5 -105.5v-658q0 -20 -21 -20h-41q-20 0 -20 20 v861q0 35 -16.5 48t-45.5 13q-20 0 -20 21z" />
<glyph unicode="&#xe18;" horiz-adv-x="913" d="M123 793q0 66 26.5 117t72.5 85.5t110.5 52t140.5 17.5q127 0 224.5 -53.5t131.5 -159.5q6 -20 -12 -27l-39 -14q-23 -8 -26 12q-20 82 -99.5 121t-179.5 39q-119 0 -193.5 -49t-74.5 -141q0 -41 23.5 -66t63.5 -40t91 -25.5t104 -22.5q63 -16 125 -37.5t109 -54.5 t75.5 -80t28.5 -117v-53q0 -158 -93 -232.5t-247 -74.5t-246 74.5t-92 232.5v133q0 20 21 21h41q20 0 20 -21v-133q0 -115 69 -170t187 -55q119 0 188.5 55t69.5 170v53q0 49 -23.5 83t-61 58.5t-88 41t-103.5 28.5q-66 16 -127 29.5t-109.5 36t-78 61.5t-29.5 105z" />
<glyph unicode="&#xe19;" horiz-adv-x="983" d="M72 963v41q0 20 20 20q78 0 111 -33t33 -110v-551q0 -115 64.5 -186.5t182.5 -71.5q59 0 117.5 22.5t105 61.5t75 91t28.5 109v648q0 20 20 20h41q20 0 21 -20v-881q0 -41 41 -41h20q20 0 21 -21v-41q0 -20 -21 -20h-20q-57 0 -90 26.5t-33 88.5v35q-59 -76 -145 -118 t-181 -42q-154 0 -241.5 93t-87.5 247v551q0 35 -16.5 48t-45.5 13q-20 0 -20 21z" />
<glyph unicode="&#xe1a;" horiz-adv-x="983" d="M72 963v41q0 20 20 20q78 0 111 -33t33 -110v-676q0 -53 22.5 -81t61 -39t91 -12t111.5 -1t111.5 1t91.5 12t61.5 39t22.5 81v799q0 20 20 20h41q20 0 21 -20v-799q0 -78 -28.5 -122t-79 -64.5t-118 -24.5t-143.5 -4t-143.5 4t-117.5 24.5t-78.5 64.5t-28.5 122v676 q0 35 -16.5 48t-45.5 13q-20 0 -20 21z" />
<glyph unicode="&#xe1b;" horiz-adv-x="983" d="M72 963v41q0 20 20 20q78 0 111 -33t33 -110v-676q0 -53 22.5 -81t61 -39t91 -12t111.5 -1t111.5 1t91.5 12t61.5 39t22.5 81v1106q0 20 20 20h41q20 0 21 -20v-1106q0 -78 -28.5 -122t-79 -64.5t-118 -24.5t-143.5 -4t-143.5 4t-117.5 24.5t-78.5 64.5t-28.5 122v676 q0 35 -16.5 48t-45.5 13q-20 0 -20 21z" />
<glyph unicode="&#xe1c;" horiz-adv-x="983" d="M133 289v592q0 78 33 110.5t110 32.5q20 0 21 -20v-41q0 -20 -21 -21q-29 0 -45 -13.5t-16 -47.5v-592q0 -76 43 -126t104 -77l150 174l150 -174q61 27 104 77t43 124v717q0 20 20 20h41q20 0 21 -20v-717q0 -61 -19.5 -109.5t-54.5 -85.5t-82 -61.5t-100 -36.5l-123 141 l-123 -141q-109 27 -182.5 99.5t-73.5 195.5z" />
<glyph unicode="&#xe1d;" horiz-adv-x="983" d="M133 289v592q0 78 33 110.5t110 32.5q20 0 21 -20v-41q0 -20 -21 -21q-29 0 -45 -13.5t-16 -47.5v-592q0 -76 43 -126t104 -77l150 174l150 -174q61 27 104 77t43 124v1024q0 20 20 20h41q20 0 21 -20v-1024q0 -61 -19.5 -109.5t-54.5 -85.5t-82 -61.5t-100 -36.5 l-123 141l-123 -141q-109 27 -182.5 99.5t-73.5 195.5z" />
<glyph unicode="&#xe1e;" horiz-adv-x="1003" d="M72 963v41q0 20 20 20q78 0 111 -33t33 -110v-633l282 715q6 14 14 14q6 0 9.5 -5t5.5 -9l282 -715v756q0 20 21 20h41q20 0 20 -20v-984q0 -20 -20 -20h-41q-14 0 -19 10l-299 758l-299 -758q-6 -10 -18 -10h-41q-20 0 -20 20v861q0 35 -16.5 48t-45.5 13q-20 0 -20 21z " />
<glyph unicode="&#xe1f;" horiz-adv-x="1003" d="M72 963v41q0 20 20 20q78 0 111 -33t33 -110v-633l282 715q6 14 14 14q6 0 9.5 -5t5.5 -9l282 -715v1063q0 20 21 20h41q20 0 20 -20v-1291q0 -20 -20 -20h-41q-14 0 -19 10l-299 758l-299 -758q-6 -10 -18 -10h-41q-20 0 -20 20v861q0 35 -16.5 48t-45.5 13 q-20 0 -20 21z" />
<glyph unicode="&#xe20;" horiz-adv-x="983" d="M51 20v41q0 20 21 21h20q29 0 45.5 13.5t16.5 47.5v543q0 6 -6.5 34t-36.5 48q25 135 135 205.5t276 70.5q76 0 143.5 -19t118 -57t79 -96.5t28.5 -134.5v-717q0 -20 -21 -20h-41q-20 0 -20 20v717q0 57 -22.5 99.5t-61.5 70t-91 42t-112 14.5q-59 0 -113.5 -11.5 t-98.5 -34t-74.5 -57.5t-38.5 -82q27 -16 33 -38.5t6 -59.5v-537q0 -78 -33 -110.5t-111 -32.5h-20q-20 0 -21 20z" />
<glyph unicode="&#xe21;" horiz-adv-x="983" d="M72 963v41q0 20 20 20q78 0 111 -33t33 -110v-537q0 -55 29.5 -104.5t75.5 -87t104.5 -59t115.5 -21.5q119 0 183.5 71.5t64.5 186.5v674q0 20 20 20h41q20 0 21 -20v-674q0 -154 -88 -247t-242 -93q-94 0 -180 41t-145 119v-35q0 -61 -33 -88t-90 -27q-20 0 -21 20v41 q1 21 21 21q41 0 41 41v758q0 35 -16.5 48t-45.5 13q-20 0 -20 21z" />
<glyph unicode="&#xe22;" horiz-adv-x="952" d="M123 317v21q0 94 41 160.5t110 105.5q-66 27 -103.5 74t-37.5 133q0 119 74 174t188 55q45 0 97 -14q20 -6 20 -20v-37q0 -10 -5 -17.5t-15 -3.5q-45 16 -91 17q-86 0 -136 -35t-50 -111q0 -53 19.5 -86t56.5 -50t88 -22.5t113 -5.5q20 0 20 -20v-41q0 -20 -20 -21 q-59 0 -111.5 -15t-91.5 -45t-61.5 -74t-22.5 -101v-21q0 -57 22.5 -102t61.5 -77t91 -49t112 -17q59 0 111 14t91 42t61.5 70t22.5 99v707q0 20 21 20h41q20 0 20 -20v-707q0 -78 -28.5 -136.5t-79 -96t-118 -56t-142.5 -18.5q-76 0 -143.5 21.5t-118 63.5t-79 103.5 t-28.5 138.5z" />
<glyph unicode="&#xe23;" horiz-adv-x="913" d="M123 766q0 74 27.5 130t75.5 93t111.5 56.5t135.5 19.5q127 0 224.5 -53.5t131.5 -159.5q6 -20 -12 -27l-39 -14q-22 -8 -26 12q-20 82 -99.5 121t-179.5 39q-119 0 -191.5 -54.5t-72.5 -162.5q0 -41 22.5 -72.5t60.5 -55.5t88 -42t103 -31q63 -16 125 -37.5t109 -54.5 t75.5 -80t28.5 -117q0 -72 -28.5 -126t-75.5 -92t-108.5 -57t-125.5 -19q-86 0 -173 32.5t-142 108.5q-14 18 2 29l39 26q20 14 31 -4q35 -51 99 -79.5t142 -28.5q49 0 95.5 12t82 38.5t57 66.5t21.5 93q0 49 -22.5 82t-60.5 55.5t-88 39t-103 28.5q-66 16 -126.5 38 t-108.5 54.5t-76.5 79.5t-28.5 113z" />
<glyph unicode="&#xe24;" horiz-adv-x="983" d="M111 768q25 135 135 205.5t276 70.5q76 0 143.5 -19t118 -57t79 -96.5t28.5 -134.5v-1065q0 -20 -21 -20h-41q-20 0 -20 20v1065q0 57 -22.5 99.5t-61.5 70t-91 42t-112 14.5q-59 0 -113.5 -11.5t-98.5 -34t-74.5 -57.5t-38.5 -82q27 -16 33 -38.5t6 -59.5v-537 q0 -35 16 -48t45 -13h20q20 0 21 -21v-41q0 -20 -21 -20h-20q-78 0 -110.5 33t-32.5 110v543q0 6 -6.5 34t-36.5 48z" />
<glyph unicode="&#xe25;" horiz-adv-x="942" d="M113 287q0 76 28.5 140.5t78.5 110.5t118 71.5t143 25.5q86 0 164 -35t123 -98v235q0 57 -22.5 99.5t-61.5 70t-91 42t-112 14.5q-88 0 -157.5 -30t-104.5 -89q-4 -8 -9 -13.5t-15 -1.5l-41 21q-18 6 -9 27q43 86 133.5 126.5t202.5 40.5q76 0 143.5 -19t118 -57 t79 -96.5t28.5 -134.5v-717q0 -20 -21 -20h-41q-20 0 -20 20v267q0 57 -22.5 106t-61.5 85t-91 55.5t-112 19.5q-59 0 -111.5 -19.5t-91 -55.5t-61 -85t-22.5 -106q0 -74 34.5 -126t89.5 -83q23 -10 13 -29l-23 -43q-8 -14 -22 -6q-76 39 -125 112.5t-49 174.5z" />
<glyph unicode="&#xe26;" horiz-adv-x="983" d="M51 20v41q0 20 21 21h20q29 0 45.5 13.5t16.5 47.5v543q0 6 -6.5 34t-36.5 48q25 135 135 205.5t276 70.5q76 0 143.5 -19t118 -57t79 -96.5t28.5 -134.5v-1065q0 -20 -21 -20h-41q-20 0 -20 20v1065q0 57 -22.5 99.5t-61.5 70t-91 42t-112 14.5q-59 0 -113.5 -11.5 t-98.5 -34t-74.5 -57.5t-38.5 -82q27 -16 33 -38.5t6 -59.5v-537q0 -78 -33 -110.5t-111 -32.5h-20q-20 0 -21 20z" />
<glyph unicode="&#xe27;" horiz-adv-x="827" d="M74 850q35 98 123 146t211 48q154 0 240.5 -76.5t86.5 -230.5v-491q0 -53 -20.5 -99.5t-55 -81t-81 -55t-99.5 -20.5q-59 0 -112.5 25.5t-87.5 70.5q-12 16 2 25l43 24q12 8 22 -4q23 -29 58.5 -44t74.5 -15q72 0 123 51t51 123v491q0 115 -63.5 170.5t-181.5 55.5 q-92 0 -159 -34t-97 -106q-8 -18 -27 -12l-39 12q-18 6 -12 27z" />
<glyph unicode="&#xe28;" horiz-adv-x="983" d="M154 20v715q0 78 28.5 136.5t78.5 96.5t117.5 57t143.5 19q104 0 189 -36q49 10 73.5 47t24.5 92q0 20 20 20h41q20 0 21 -20q0 -145 -96 -191q45 -39 70.5 -93t25.5 -126v-717q0 -20 -21 -20h-41q-20 0 -20 20v717q0 57 -22.5 99.5t-61.5 70t-91 42t-112 14.5 q-59 0 -111.5 -14.5t-91 -42t-61 -70.5t-22.5 -101v-166q41 57 104 92t141 35q20 0 21 -20v-41q0 -20 -21 -21q-49 0 -93 -18t-78 -51t-53 -75t-21 -91v-359q0 -20 -21 -20h-41q-20 0 -20 20z" />
<glyph unicode="&#xe29;" horiz-adv-x="983" d="M72 963v41q0 20 20 20q78 0 111 -33t33 -110v-676q0 -53 22.5 -81t61 -39t91 -12t111.5 -1t111.5 1t91.5 12t61.5 39t22.5 81v327h-72q-78 0 -110.5 33t-32.5 111q0 20 20 20h41q20 0 21 -20q0 -29 13 -45.5t48 -16.5h72v390q0 20 20 20h41q20 0 21 -20v-390h113 q20 0 20 -20v-41q0 -20 -20 -21h-113v-327q0 -78 -28.5 -122t-79 -64.5t-118 -24.5t-143.5 -4t-143.5 4t-117.5 24.5t-78.5 64.5t-28.5 122v676q0 35 -16.5 48t-45.5 13q-20 0 -20 21z" />
<glyph unicode="&#xe2a;" horiz-adv-x="942" d="M113 287q0 76 28.5 140.5t78.5 110.5t118 71.5t143 25.5q86 0 164 -35t123 -98v235q0 57 -22.5 99.5t-61.5 70t-91 42t-112 14.5q-88 0 -157.5 -30t-104.5 -89q-4 -8 -9 -13.5t-15 -1.5l-41 21q-18 6 -9 27q43 86 133.5 126.5t202.5 40.5q104 0 189 -36q49 10 73.5 47 t24.5 92q0 20 20 20h41q20 0 21 -20q0 -145 -96 -191q45 -39 70.5 -93t25.5 -126v-717q0 -20 -21 -20h-41q-20 0 -20 20v267q0 57 -22.5 106t-61.5 85t-91 55.5t-112 19.5q-59 0 -111.5 -19.5t-91 -55.5t-61 -85t-22.5 -106q0 -74 34.5 -126t89.5 -83q23 -10 13 -29l-23 -43 q-8 -14 -22 -6q-76 39 -125 112.5t-49 174.5z" />
<glyph unicode="&#xe2b;" horiz-adv-x="983" d="M72 963v41q0 20 20 20q78 0 111 -33t33 -110v-275q59 86 161 135q16 133 112.5 208t238.5 75q20 0 20 -20v-41q0 -20 -20 -21q-98 0 -169 -44t-94 -128q33 8 76 8q154 0 242 -93t88 -247v-418q0 -20 -21 -20h-41q-20 0 -20 20v418q0 115 -64.5 186.5t-183.5 71.5 q-59 0 -117.5 -22.5t-104.5 -61.5t-74.5 -91t-28.5 -109v-392q0 -20 -21 -20h-41q-20 0 -20 20v861q0 35 -16.5 48t-45.5 13q-20 0 -20 21z" />
<glyph unicode="&#xe2c;" horiz-adv-x="1009" d="M72 963v41q0 20 20 20q78 0 111 -33t33 -110v-633l282 715q6 14 14 14q6 0 9.5 -5t5.5 -9l282 -715v700q0 66 -30.5 107t-96.5 41q-20 0 -20 20v41q0 20 20 21q72 0 103 34.5t31 98.5q0 20 20 20h41q20 0 21 -20q0 -125 -76 -181q70 -61 69 -182v-928q0 -20 -20 -20h-41 q-14 0 -21 14l-297 754l-299 -758q-6 -10 -18 -10h-41q-20 0 -20 20v861q0 35 -16.5 48t-45.5 13q-20 0 -20 21z" />
<glyph unicode="&#xe2d;" horiz-adv-x="952" d="M123 297v133q0 78 53 131t131 53q20 0 21 -20v-41q0 -20 -21 -21q-43 0 -72.5 -29.5t-29.5 -72.5v-133q0 -57 22.5 -99t61.5 -70t91 -42t112 -14q59 0 111 14t91 42t61.5 70t22.5 99v440q0 57 -22.5 99.5t-61.5 70t-91 42t-111 14.5q-102 0 -180 -40t-101 -130 q-6 -18 -25 -15l-41 6q-18 2 -14 25q12 59 45 103t81 74t108.5 44t126.5 14q76 0 143 -19t117.5 -57t79 -96.5t28.5 -134.5v-440q0 -78 -28.5 -136.5t-79 -96t-118 -56t-142.5 -18.5q-76 0 -143.5 18.5t-118 56t-79 96t-28.5 136.5z" />
<glyph unicode="&#xe2e;" horiz-adv-x="952" d="M123 297v133q0 78 53 131t131 53q20 0 21 -20v-41q0 -20 -21 -21q-43 0 -72.5 -29.5t-29.5 -72.5v-133q0 -57 22.5 -99t61.5 -70t91 -42t112 -14q59 0 111 14t91 42t61.5 70t22.5 99v440q0 57 -22.5 99.5t-61.5 70t-91 42t-111 14.5q-102 0 -180.5 -40t-100.5 -130 q-6 -18 -25 -15l-41 6q-18 2 -14 25q12 59 45 103t81 74t108.5 44t126.5 14q104 0 188 -36q49 10 73.5 47t24.5 92q0 20 21 20h41q20 0 20 -20q0 -145 -96 -191q45 -39 70.5 -93t25.5 -126v-440q0 -78 -28.5 -136.5t-79 -96t-118 -56t-142.5 -18.5q-76 0 -143.5 18.5 t-118 56t-79 96t-28.5 136.5z" />
<glyph unicode="&#xe2f;" horiz-adv-x="798" d="M51 985q0 20 21 21h41q20 0 20 -21q0 -51 19.5 -95t53.5 -78t78 -53.5t95 -19.5q49 0 93 18.5t78 51.5t54.5 78t20.5 98q0 20 20 21h41q20 0 21 -21v-780q0 -66 -30 -121t-81 -90q-16 -12 -29 4l-28 33q-6 8 -4 16t10 12q35 23 57.5 61t22.5 85v569q-41 -55 -107.5 -86 t-138.5 -31q-68 0 -127 26t-104.5 71t-71 104.5t-25.5 126.5z" />
<glyph unicode="&#xe30;" horiz-adv-x="686" d="M113 287q0 20 20 20h41q20 0 21 -20q0 -29 13 -45.5t48 -16.5h328q20 0 20 -20v-41q0 -20 -20 -21h-328q-78 0 -110.5 33t-32.5 111zM113 860q0 20 20 21h41q20 0 21 -21q0 -29 13 -45t48 -16h328q20 0 20 -21v-41q0 -20 -20 -20h-328q-78 0 -110.5 32.5t-32.5 110.5z " />
<glyph unicode="&#xe31;" d="M-516 1325q0 20 20 21h45q20 0 21 -21q0 -23 9 -39t44 -16h479q20 0 21 -21v-41q0 -20 -21 -20h-479q-82 0 -110.5 29.5t-28.5 107.5z" />
<glyph unicode="&#xe32;" horiz-adv-x="751" d="M47 850q35 92 113 143t182 51q68 0 126 -22.5t100 -62t66.5 -97t24.5 -125.5v-717q0 -20 -20 -20h-41q-20 0 -20 20v717q0 100 -67 163t-169 63q-78 0 -135 -37t-84 -103q-8 -18 -27 -12l-37 12q-18 7 -12 27z" />
<glyph unicode="&#xe33;" horiz-adv-x="751" d="M-283 1284q0 45 32 77t75 32t75.5 -32t32.5 -77t-32.5 -75.5t-75.5 -30.5t-75 30.5t-32 75.5zM-223 1284q0 -20 13 -33.5t34 -13.5q20 0 32.5 13.5t12.5 33.5q0 45 -45 45q-20 0 -33.5 -12.5t-13.5 -32.5zM49 850q35 92 113 143t182 51q68 0 126 -22.5t100 -62t67 -97 t25 -125.5v-717q0 -20 -21 -20h-41q-20 0 -20 20v717q0 100 -67 163t-169 63q-78 0 -135 -37t-84 -103q-8 -18 -27 -12l-37 12q-18 7 -12 27z" />
<glyph unicode="&#xe34;" d="M-803 1208v49q0 20 21 21h669q20 0 21 -21v-49q0 -20 -21 -20h-669q-20 0 -21 20z" />
<glyph unicode="&#xe35;" d="M-803 1208v35q0 20 21 21h618v98q0 20 21 20h30q20 0 21 -20v-154q0 -20 -21 -20h-669q-20 0 -21 20z" />
<glyph unicode="&#xe36;" d="M-803 1208v35q0 20 21 21h516q-2 8 -2 13v9q0 41 28.5 69.5t69.5 28.5t69.5 -28.5t28.5 -69.5t-28.5 -69.5t-69.5 -28.5h-612q-20 0 -21 20zM-215 1286q0 -18 13.5 -31.5t31.5 -13.5t31.5 13.5t13.5 31.5q0 20 -13.5 32.5t-31.5 12.5t-31.5 -12.5t-13.5 -32.5z" />
<glyph unicode="&#xe37;" d="M-803 1208v35q0 20 21 21h458v98q0 20 21 20h31q20 0 20 -20v-98h88v98q0 20 21 20h30q20 0 21 -20v-154q0 -20 -21 -20h-669q-20 0 -21 20z" />
<glyph unicode="&#xe38;" d="M-217 -143q0 20 20 20q74 0 89.5 -28.5t15.5 -75.5v-162q0 -20 -21 -21h-30q-20 0 -21 21v162q0 29 -33 28q-20 0 -20 21v35z" />
<glyph unicode="&#xe39;" d="M-412 -143q0 20 21 20q74 0 89 -28.5t15 -75.5v-82q0 -14 16.5 -22.5t45.5 -8.5t45 8t16 23v166q0 20 21 20h30q20 0 21 -20v-185q0 -53 -37 -67.5t-96 -14.5t-96 14.5t-37 67.5v101q0 29 -33 28q-20 0 -21 21v35z" />
<glyph unicode="&#xe3a;" d="M-176 -180q0 25 17.5 41t39.5 16q25 0 41.5 -16.5t16.5 -40.5q0 -23 -16.5 -40.5t-41.5 -17.5q-23 0 -40 17.5t-17 40.5z" />
<glyph unicode="&#xe3f;" horiz-adv-x="1075" d="M154 20v1311q0 20 20 21h281v61q0 20 20 21h41q20 0 21 -21v-61h55q68 0 127 -22.5t104 -64.5t71 -98.5t26 -124.5q0 -86 -42 -154.5t-110 -109.5q111 -47 178.5 -143t67.5 -225q0 -90 -34 -165t-92.5 -129.5t-136 -85t-165.5 -30.5h-49v-102q0 -20 -21 -21h-41 q-20 0 -20 21v102h-281q-20 0 -20 20zM236 88h219v643h-219v-643zM236 817h219v447h-219v-447zM537 88h49q72 0 134 23.5t109.5 65.5t75 101.5t27.5 131.5q0 70 -26.5 129t-72 102t-105.5 66.5t-130 23.5h-61v-643zM537 817h55q51 0 95 16.5t78 46t53.5 70.5t19.5 92 t-19.5 92.5t-53.5 70t-78 44t-95 15.5h-55v-447z" />
<glyph unicode="&#xe40;" horiz-adv-x="307" d="M133 115v889q0 20 21 20h41q20 0 20 -20v-881q0 -41 41 -41q20 0 20 -21v-41q0 -20 -20 -20q-57 0 -90 26.5t-33 88.5z" />
<glyph unicode="&#xe41;" horiz-adv-x="604" d="M133 115v889q0 20 21 20h41q20 0 20 -20v-881q0 -41 41 -41q20 0 20 -21v-41q0 -20 -20 -20q-57 0 -90 26.5t-33 88.5zM430 115v889q0 20 21 20h41q20 0 20 -20v-881q0 -41 41 -41q20 0 20 -21v-41q0 -20 -20 -20q-57 0 -90 26.5t-33 88.5z" />
<glyph unicode="&#xe42;" horiz-adv-x="323" d="M-35 1593q0 35 23.5 58.5t58.5 23.5l295 -12q47 -2 73.5 18.5t43.5 44.5q10 18 28 9l37 -31q6 -6 6 -14.5t-4 -14.5q-23 -41 -67.5 -69.5t-114.5 -24.5l-291 12q37 -2 70 -17t56.5 -40t37.5 -57.5t14 -69.5v-1286q0 -41 41 -41q20 0 21 -21v-41q0 -20 -21 -20 q-57 0 -89.5 26.5t-32.5 88.5v1294q0 43 -30 72.5t-73 29.5q-35 0 -58.5 24t-23.5 58z" />
<glyph unicode="&#xe43;" horiz-adv-x="323" d="M-55 1585q33 49 90 81t129 32q117 0 174 -63.5t57 -161.5q0 -61 -27.5 -102.5t-62.5 -80.5q-27 -29 -48 -59.5t-26 -69.5v-1038q0 -41 41 -41q20 0 21 -21v-41q0 -20 -21 -20q-57 0 -89.5 26.5t-32.5 88.5v1048q4 61 32.5 103.5t61.5 76.5q27 29 48 60t21 70 q0 59 -36.5 101t-112.5 42q-47 0 -87.5 -21.5t-60.5 -52.5q-12 -16 -26 -8l-37 25q-18 10 -8 26z" />
<glyph unicode="&#xe44;" horiz-adv-x="323" d="M-55 1638v52q0 14 20 10q14 -4 38 -9t46 -12q25 -8 53 -14l267 35q23 0 22 -21v-41q0 -12 -6 -14l-154 -182v-1319q0 -41 41 -41q20 0 21 -21v-41q0 -20 -21 -20q-57 0 -89.5 26.5t-32.5 88.5v1360l124 131l-172 -23q-29 6 -53 14q-23 6 -46 11.5t-38 9.5q-20 4 -20 20z " />
<glyph unicode="&#xe45;" horiz-adv-x="751" d="M47 850q35 92 113 143t182 51q68 0 126 -22.5t100 -62t66.5 -97t24.5 -125.5v-1065q0 -20 -20 -20h-41q-20 0 -20 20v1065q0 100 -67 163t-169 63q-78 0 -135 -37t-84 -103q-8 -18 -27 -12l-37 12q-18 7 -12 27z" />
<glyph unicode="&#xe46;" horiz-adv-x="716" d="M51 778q0 94 53.5 157.5t139.5 92.5l94 -94l94 94q86 -29 139.5 -92.5t53.5 -157.5v-880q0 -66 -30 -121.5t-81 -89.5q-16 -12 -29 4l-28 33q-6 8 -4 16t10 12q35 23 57.5 60.5t22.5 85.5v880q0 53 -27 89t-70 61l-108 -109l-113 111q-41 -25 -66.5 -62t-25.5 -90 q0 -20 -20 -20h-41q-20 0 -21 20z" />
<glyph unicode="&#xe47;" d="M-686 1366q0 39 15.5 73t41 60.5t60 41.5t73.5 15h254q23 0 35 17q10 23 29 8l26 -20q12 -16 2 -31q-16 -23 -39.5 -37t-52.5 -14h-254q-49 0 -81.5 -32t-32.5 -81q0 -47 29.5 -80t74.5 -39q33 29 73 65t68 58l140 -123q14 -10 4 -28l-23 -27q-18 -12 -32 2l-89 78 l-118 -96q-43 0 -80 14t-64.5 40.5t-43 60.5t-15.5 75z" />
<glyph unicode="&#xe48;" d="M-162 1475v163q0 20 21 21h28q20 0 21 -21v-163q0 -20 -21 -21h-28q-20 0 -21 21z" />
<glyph unicode="&#xe49;" d="M-279 1563q-14 14 0 28l21 21q14 14 29 0l55 -58l98 97q14 14 29 0l20 -21q14 -14 0 -28l-147 -146z" />
<glyph unicode="&#xe4a;" d="M-401 1505l98 150l63 -84l62 82l61 -82l37 51q10 12 27 0l22 -18q14 -12 4 -25l-90 -119l-61 82l-62 -82l-59 80q-14 -20 -25.5 -36t-23.5 -36q-10 -18 -29 -4l-20 17q-14 10 -4 24z" />
<glyph unicode="&#xe4b;" d="M-229 1544v29q0 20 20 20h47v45q0 20 21 21h28q20 0 21 -21v-45h47q20 0 20 -20v-29q0 -20 -20 -20h-47v-49q0 -20 -21 -21h-28q-20 0 -21 21v49h-47q-20 0 -20 20z" />
<glyph unicode="&#xe4c;" d="M-340 1442q0 57 26.5 79.5t73.5 24.5h250q20 0 31 17q10 18 29 8l24 -21q14 -14 2 -28q-16 -20 -37.5 -33.5t-48.5 -13.5h-246q-29 0 -28 -33q0 -20 -21 -21h-34q-20 0 -21 21z" />
<glyph unicode="&#xe4d;" d="M-254 1270q0 39 27.5 66.5t64.5 27.5t65.5 -27.5t28.5 -66.5t-28.5 -65.5t-65.5 -26.5t-64.5 26.5t-27.5 65.5zM-205 1270q0 -16 13.5 -29.5t29.5 -13.5t29.5 13t13.5 30q0 18 -13 30.5t-30 12.5q-16 0 -29.5 -12.5t-13.5 -30.5z" />
<glyph unicode="&#xe4e;" d="M-401 1298q0 49 35.5 84t80.5 50q-37 33 -37 81q0 66 54.5 95.5t126.5 29.5q18 0 43.5 -4t52.5 -12t51.5 -18.5t40.5 -24.5q18 -12 6 -29l-18 -24q-4 -4 -10.5 -6t-16.5 6q-29 23 -74 32t-75 9q-10 0 -28.5 -1t-35 -7.5t-29 -17.5t-12.5 -30q0 -27 23.5 -42t34.5 -19 q10 -4 15 -5t5 -11v-31q0 -20 -20 -21q-23 0 -47.5 -5t-44 -15t-32 -26.5t-12.5 -37.5q0 -41 31 -55t64 -14t53 12.5t43 28.5q14 10 24 0l27 -27q6 -8 6 -14t-10 -17q-61 -55 -143 -55q-25 0 -55.5 6t-56.5 22.5t-43 43t-17 69.5z" />
<glyph unicode="&#xe4f;" horiz-adv-x="1054" d="M123 492q0 92 35 170.5t94 138t138 93.5t167 34q86 0 166 -33t139.5 -91.5t95 -138t35.5 -173.5q0 -90 -33.5 -169t-93 -137.5t-138.5 -92.5t-171 -34q-90 0 -169 34t-138.5 92.5t-93 137t-33.5 169.5zM188 492q0 -76 28 -142.5t77 -117t116.5 -79t147.5 -28.5 t147.5 28.5t116.5 79t77 117t28 142.5t-29 143t-79 118.5t-117.5 80t-143.5 28.5t-143.5 -28.5t-117.5 -80t-79 -119t-29 -142.5zM334 492q0 98 62.5 162.5t160.5 64.5t163.5 -64.5t65.5 -162.5q0 -47 -17 -88.5t-48 -71t-73 -47t-91 -17.5q-98 0 -160.5 63.5t-62.5 160.5z " />
<glyph unicode="&#xe50;" horiz-adv-x="931" d="M133 440q0 100 12.5 193.5t50 164t108.5 112.5t188 42t186.5 -42t108 -112.5t51 -163.5t12.5 -194q0 -102 -20.5 -187t-63.5 -144.5t-110.5 -92t-163.5 -32.5t-164 32.5t-111 92t-63.5 144.5t-20.5 187zM215 440q0 -84 15.5 -152.5t49 -117.5t86 -76.5t126.5 -27.5 t126 27.5t85.5 76.5t49 117.5t15.5 152.5q0 86 -10 164t-40 137.5t-84 94t-142 34.5q-90 0 -144.5 -34.5t-84.5 -94t-39 -137.5t-9 -164z" />
<glyph unicode="&#xe51;" horiz-adv-x="946" d="M123 596q0 102 29.5 171t81 110t117 57t138.5 16q104 0 176 -35.5t116 -95t63.5 -137.5t19.5 -162q0 -115 -34.5 -211t-98 -164.5t-154 -106.5t-200.5 -38q-20 0 -21 20v41q1 21 21 21q92 0 166.5 32.5t128 91t82 138.5t28.5 176q0 154 -71.5 251t-227.5 97 q-55 0 -106 -13t-89 -45t-60.5 -84t-22.5 -130q0 -59 19.5 -100t50 -67t67.5 -37t70 -11q12 0 30.5 2t38 8t39 17.5t33.5 29.5q6 8 9 8t11 -4l45 -26q14 -8 3 -25q-20 -29 -49 -46t-59 -27.5t-57.5 -14.5t-43.5 -4q-47 0 -98.5 15.5t-93.5 50t-69.5 91t-27.5 140.5z" />
<glyph unicode="&#xe52;" horiz-adv-x="972" d="M72 1065v41q0 20 20 20q78 0 111 -32.5t33 -110.5v-723q0 -53 23.5 -91t63 -60.5t92 -32.5t107.5 -10t106.5 10t91.5 32.5t64.5 60.5t24.5 91v438q0 53 -26.5 89t-69.5 61l-109 -109l-112 111q-41 -25 -67 -61.5t-26 -90.5q0 -20 -20 -20h-41q-20 0 -21 20q0 94 53.5 158 t139.5 92l94 -94l94 94q86 -29 139.5 -92t53.5 -158v-438q0 -74 -31 -126t-82 -86t-117.5 -49t-138.5 -15t-138.5 15t-117.5 49t-81.5 86t-30.5 126v723q0 35 -16.5 48t-45.5 13q-20 0 -20 21z" />
<glyph unicode="&#xe53;" horiz-adv-x="1024" d="M154 143v602q0 90 62.5 147.5t152.5 57.5q53 0 99 -21.5t75 -60.5q29 39 75 60.5t99 21.5q90 0 152.5 -57t62.5 -148v-725q0 -20 -21 -20h-41q-20 0 -20 20v725q0 55 -39 89t-94 34t-94 -33.5t-39 -89.5v-622q0 -20 -21 -21h-41q-20 0 -20 21v622q0 55 -39 89t-94 34 t-94 -33.5t-39 -89.5v-602q0 -35 16 -48t45 -13q20 0 20 -21v-41q0 -20 -20 -20q-78 0 -110.5 33t-32.5 110z" />
<glyph unicode="&#xe54;" horiz-adv-x="1054" d="M129 471q0 98 30.5 183t85 149.5t129.5 101.5t163 37h237q47 0 85 21.5t61 56.5q10 18 28 8l37 -31q14 -14 2 -28q-80 -109 -213 -109h-237q-70 0 -129.5 -30.5t-103.5 -83t-68.5 -124t-24.5 -151.5t24.5 -151.5t68.5 -124t103.5 -83t129.5 -30.5h65q-74 74 -74 184 q0 57 22.5 106.5t61.5 86.5q6 8 15.5 8t13.5 -4l33 -29q16 -12 -2 -28q-27 -27 -44.5 -63t-17.5 -77q0 -76 51.5 -128t124.5 -56h111q20 0 21 -21v-41q0 -20 -21 -20h-360q-88 0 -163 37t-129.5 101.5t-85 149.5t-30.5 183z" />
<glyph unicode="&#xe55;" horiz-adv-x="1054" d="M129 471q0 106 36 198.5t101 157.5q-76 25 -108 99q-8 20 4 28l43 31q14 8 24 -12q16 -37 43 -60.5t72 -23.5q41 25 90 39t103 14h237q47 2 85 22.5t61 55.5q10 18 28 8l37 -31q14 -14 2 -28q-80 -109 -213 -109h-237q-70 0 -129.5 -30.5t-103.5 -83t-68.5 -124 t-24.5 -151.5t24.5 -151.5t68.5 -124t103.5 -83t129.5 -30.5h65q-74 74 -74 184q0 57 22.5 106.5t61.5 86.5q6 8 15.5 8t13.5 -4l33 -29q16 -12 -2 -28q-27 -27 -44.5 -63t-17.5 -77q0 -76 51.5 -128t124.5 -56h111q20 0 21 -21v-41q0 -20 -21 -20h-360q-88 0 -163 37 t-129.5 101.5t-85 149.5t-30.5 183z" />
<glyph unicode="&#xe56;" horiz-adv-x="921" d="M53 971l15 53q2 12 16 8q80 -27 121 -72t63 -88q35 33 88.5 56.5t124.5 23.5q94 0 164 -37.5t115 -102t67.5 -148.5t22.5 -177q0 -78 -17.5 -167t-59.5 -164.5t-113.5 -124.5t-178.5 -49q-47 0 -95 12t-87 47q-10 8 0 18l31 39q12 14 22 4q23 -23 55.5 -31t67.5 -8 q86 0 142.5 40t90 102.5t47 137.5t13.5 142q0 76 -17.5 146.5t-53 123t-90 84t-126.5 31.5q-78 0 -128 -29.5t-99 -97.5q-6 -10 -13.5 -6t-9.5 8q-27 66 -63.5 125.5t-108.5 83.5q-14 4 -6 17z" />
<glyph unicode="&#xe57;" horiz-adv-x="1044" d="M154 143v602q0 90 62.5 147.5t152.5 57.5q53 0 99 -21.5t75 -60.5q29 39 75 60.5t99 21.5q94 0 155 -61q55 6 83 51t28 104q0 20 21 21h40q20 0 21 -21q0 -88 -36 -146t-111 -75q6 -18 10 -37.5t4 -40.5v-725q0 -20 -21 -20h-41q-20 0 -20 20v725q0 55 -39 89t-94 34 q-53 0 -91 -30.5t-42 -83.5v-324q0 -20 -21 -20h-41q-20 0 -20 20v315q0 55 -39 89t-94 34t-94 -33.5t-39 -89.5v-602q0 -35 16 -48t45 -13q20 0 20 -21v-41q0 -20 -20 -20q-78 0 -110.5 33t-32.5 110z" />
<glyph unicode="&#xe58;" horiz-adv-x="1054" d="M129 471q0 98 22.5 183t67.5 149.5t111.5 101.5t154.5 37h289q47 2 85 22.5t61 55.5q10 18 28 8l37 -31q14 -14 2 -28q-80 -109 -213 -109h-289q-70 0 -120 -30.5t-83.5 -83t-50 -124t-16.5 -151.5q0 -70 12.5 -132.5t37 -113.5t61 -88t86.5 -51l153 180l150 -168 q61 35 98 97.5t37 138.5q0 20 20 20h41q20 0 21 -20q0 -59 -17.5 -111.5t-50.5 -96.5t-77 -76t-95 -50q-27 31 -62.5 71t-64.5 70l-119 -141q-76 10 -135 49t-99 101.5t-61.5 144.5t-21.5 176z" />
<glyph unicode="&#xe59;" horiz-adv-x="956" d="M154 782q0 76 42 122t126 46q49 0 82.5 -14t60.5 -43q20 35 55 46t78 11h139q47 2 85 22.5t61 55.5q10 18 28 8l37 -30q14 -14 2 -29q-80 -109 -213 -109h-139q-29 0 -49.5 -13t-22.5 -54q10 -23 20.5 -49.5t22.5 -55.5l252 -657q6 -20 -12 -27l-39 -14q-18 -6 -25 10 l-253 660q-16 39 -32 75.5t-35 64.5t-44 44t-59 16q-41 0 -63.5 -22.5t-22.5 -63.5l18 -495q2 -55 15.5 -91t33 -58.5t45 -36t53.5 -23.5q10 -4 14.5 -11.5t-1.5 -17.5l-23 -43q-8 -14 -22 -6q-37 14 -72 30.5t-61.5 47.5t-44 80t-19.5 129z" />
<glyph unicode="&#xe5a;" horiz-adv-x="1095" d="M51 985q0 20 21 21h41q20 0 20 -21q0 -51 19.5 -95t53.5 -78t78 -53.5t95 -19.5q49 0 93 18.5t78 51.5t54.5 78t20.5 98q0 20 20 21h41q20 0 21 -21v-780q0 -66 -30 -121t-81 -90q-16 -12 -29 4l-28 33q-6 8 -4 16t10 12q35 23 57.5 61t22.5 85v569q-41 -55 -107.5 -86 t-138.5 -31q-68 0 -127 26t-104.5 71t-71 104.5t-25.5 126.5zM832 47q2 8 10 12q35 23 57.5 61t22.5 85v778q0 20 20 21h41q20 0 21 -21v-778q0 -66 -30 -121t-81 -90q-16 -12 -29 4l-28 33q-6 8 -4 16z" />
<glyph unicode="&#x2000;" horiz-adv-x="869" />
<glyph unicode="&#x2001;" horiz-adv-x="1738" />
<glyph unicode="&#x2002;" horiz-adv-x="869" />
<glyph unicode="&#x2003;" horiz-adv-x="1738" />
<glyph unicode="&#x2004;" horiz-adv-x="579" />
<glyph unicode="&#x2005;" horiz-adv-x="434" />
<glyph unicode="&#x2006;" horiz-adv-x="289" />
<glyph unicode="&#x2007;" horiz-adv-x="289" />
<glyph unicode="&#x2008;" horiz-adv-x="217" />
<glyph unicode="&#x2009;" horiz-adv-x="347" />
<glyph unicode="&#x200a;" horiz-adv-x="96" />
<glyph unicode="&#x2010;" horiz-adv-x="983" d="M154 494v45q0 20 20 20h696q20 0 21 -20v-45q0 -20 -21 -21h-696q-20 0 -20 21z" />
<glyph unicode="&#x2011;" horiz-adv-x="983" d="M154 494v45q0 20 20 20h696q20 0 21 -20v-45q0 -20 -21 -21h-696q-20 0 -20 21z" />
<glyph unicode="&#x2012;" horiz-adv-x="983" d="M154 494v45q0 20 20 20h696q20 0 21 -20v-45q0 -20 -21 -21h-696q-20 0 -20 21z" />
<glyph unicode="&#x2013;" horiz-adv-x="675" d="M61 485v45q0 20 21 21h512q20 0 20 -21v-45q0 -20 -20 -20h-512q-20 0 -21 20z" />
<glyph unicode="&#x2014;" horiz-adv-x="1105" d="M61 485v45q0 20 21 21h942q20 0 20 -21v-45q0 -20 -20 -20h-942q-20 0 -21 20z" />
<glyph unicode="&#x2018;" horiz-adv-x="266" d="M92 1004l84 307q4 20 25 20h30q20 0 17 -20l-84 -307q-4 -20 -25 -21h-30q-20 0 -17 21z" />
<glyph unicode="&#x2019;" horiz-adv-x="296" d="M74 1004l84 307q4 20 24 20h31q20 0 16 -20l-84 -307q-4 -20 -24 -21h-31q-20 0 -16 21z" />
<glyph unicode="&#x2022;" horiz-adv-x="423" d="M102 477q0 53 38 92t91 39t92 -39t39 -92t-38.5 -91t-92.5 -38q-53 0 -91 38t-38 91z" />
<glyph unicode="&#x2026;" horiz-adv-x="872" d="M72 53q0 25 17 41.5t40 16.5q25 0 41 -16.5t16 -41.5q0 -23 -16 -40t-41 -17q-23 0 -40 17t-17 40zM385 53q0 25 17.5 41.5t39.5 16.5q25 0 41.5 -16.5t16.5 -41.5q0 -23 -16.5 -40t-41.5 -17q-23 0 -40 17t-17 40zM696 53q0 25 17.5 41.5t40.5 16.5q25 0 41 -16.5 t16 -41.5q0 -23 -16.5 -40t-40.5 -17q-23 0 -40.5 17t-17.5 40z" />
<glyph unicode="&#x202f;" horiz-adv-x="347" />
<glyph unicode="&#x205f;" horiz-adv-x="434" />
<glyph unicode="&#x20ac;" horiz-adv-x="1067" d="M51 530l12 45q6 20 29 21h111v121h-82q-18 0 -12 20l12 45q6 20 29 21h53v170q0 78 35.5 147.5t94 120.5t134.5 81t156 30q57 0 115.5 -15.5t109.5 -44t91 -69.5t62 -93q8 -18 -6 -26l-37 -23q-18 -12 -26 9q-41 80 -127 130t-182 50q-66 0 -126.5 -23.5t-107.5 -63.5 t-75.5 -94.5t-28.5 -115.5v-170h577q18 0 12 -21l-12 -45q-6 -20 -28 -20h-549v-121h520q18 0 12 -21l-12 -45q-6 -20 -29 -20h-491v-141q0 -61 28.5 -115.5t75.5 -94.5t107.5 -63.5t126.5 -23.5q104 0 186 58t115 151q6 20 24 14l39 -14q23 -8 14 -25q-49 -115 -148 -190.5 t-230 -75.5q-80 0 -156 29.5t-134.5 81t-94 121t-35.5 147.5v141h-140q-18 0 -12 20z" />
<glyph unicode="&#x2260;" horiz-adv-x="983" d="M154 350v45q0 20 20 21h268l45 170h-313q-20 0 -20 20v45q0 20 20 21h338l61 229q4 20 25 21h41q20 0 16 -21l-61 -229h276q20 0 21 -21v-45q0 -20 -21 -20h-301l-45 -170h346q20 0 21 -21v-45q0 -20 -21 -20h-368l-62 -228q-4 -20 -24 -20h-41q-20 0 -17 20l62 228h-246 q-20 0 -20 20z" />
<glyph unicode="&#x2264;" horiz-adv-x="972" d="M143 139v45q0 20 21 21h696q20 0 21 -21v-45q0 -20 -21 -20h-696q-20 0 -21 20zM143 602v47q0 12 11 19l706 331q20 10 21 -12v-55q0 -12 -11 -17l-612 -288l612 -289q10 -6 11 -16v-56q0 -23 -21 -12l-706 330q-10 4 -11 18z" />
<glyph unicode="&#x2265;" horiz-adv-x="972" d="M154 139v45q0 20 20 21h696q20 0 21 -21v-45q0 -20 -21 -20h-696q-20 0 -20 20zM154 266v56q0 10 10 16l612 289l-612 288q-10 4 -10 17v55q0 23 20 12l707 -331q10 -6 10 -19v-47q0 -14 -10 -18l-707 -330q-20 -10 -20 12z" />
<glyph unicode="&#x25cc;" horiz-adv-x="964" d="M123 522q0 25 17.5 41.5t39.5 16.5q25 0 41.5 -16.5t16.5 -41.5q0 -23 -16.5 -40t-41.5 -17q-23 0 -40 17t-17 40zM195 307q0 25 17 41.5t40 16.5q25 0 41 -16.5t16 -41.5q0 -23 -16.5 -40t-40.5 -17q-23 0 -40 17t-17 40zM195 768q0 25 17 41t40 16q25 0 41 -16t16 -41 q0 -23 -16.5 -40t-40.5 -17q-23 0 -40 17t-17 40zM455 186q0 25 17 41.5t40 16.5q25 0 41 -16.5t16 -41.5q0 -23 -16 -40t-41 -17q-23 0 -40 17t-17 40zM457 899q0 25 17.5 41t39.5 16q25 0 41 -16t16 -41q0 -23 -16 -40t-41 -17q-23 0 -40 17t-17 40zM715 307 q0 25 17.5 41.5t39.5 16.5q25 0 41 -16.5t16 -41.5q0 -23 -16 -40t-41 -17q-23 0 -40 17t-17 40zM715 768q0 25 17.5 41t39.5 16q25 0 41 -16t16 -41q0 -23 -16 -40t-41 -17q-23 0 -40 17t-17 40zM788 522q0 25 17.5 41.5t40.5 16.5q25 0 41 -16.5t16 -41.5q0 -23 -16.5 -40 t-40.5 -17q-23 0 -40.5 17t-17.5 40z" />
<glyph unicode="&#x25fc;" horiz-adv-x="1024" d="M0 0v1024h1024v-1024h-1024z" />
<glyph unicode="&#xf700;" horiz-adv-x="804" d="M88 936q-12 19 6 31q47 37 122 52t151 15h208q47 0 87 22.5t61 57.5q12 18 27 6l36 -30q14 -14 2 -29q-66 -90 -172 -107q45 -39 71 -95t26 -132v-707q0 -20 -21 -20h-41q-20 0 -20 20v277q-2 49 -22.5 91t-53.5 75t-77 51t-93 18q-20 0 -20 21v41q0 20 20 20 q78 0 141.5 -34.5t104.5 -92.5v240q0 111 -71 166t-193 59q-63 0 -127 -11t-99 -46q-12 -12 -28 6z" />
<glyph unicode="&#xf701;" d="M-813 1208v49q0 20 20 21h568q20 0 20 -21v-49q0 -20 -20 -20h-568q-20 0 -20 20z" />
<glyph unicode="&#xf702;" d="M-813 1208v35q0 20 20 21h517v98q0 20 20 20h31q20 0 20 -20v-154q0 -20 -20 -20h-568q-20 0 -20 20z" />
<glyph unicode="&#xf703;" d="M-813 1208v35q0 20 20 21h414q-2 8 -2 13v9q0 41 28.5 69.5t69.5 28.5t70 -28.5t29 -69.5t-29 -69.5t-70 -28.5h-510q-20 0 -20 20zM-328 1286q0 -18 13.5 -31.5t31.5 -13.5t31.5 13.5t13.5 31.5q0 20 -13 32.5t-32 12.5q-18 0 -31.5 -12.5t-13.5 -32.5z" />
<glyph unicode="&#xf704;" d="M-813 1208v35q0 20 20 21h357v98q0 20 20 20h31q20 0 20 -20v-98h89v98q0 20 20 20h31q20 0 20 -20v-154q0 -20 -20 -20h-568q-20 0 -20 20z" />
<glyph unicode="&#xf705;" d="M-451 1167v205q0 20 21 21h41q20 0 20 -21v-205q0 -20 -20 -20h-41q-20 0 -21 20z" />
<glyph unicode="&#xf706;" d="M-549 1268q-14 14 0 28l27 27q14 14 28 0l64 -66l133 129q14 14 29 0l26 -26q14 -14 0 -29l-188 -184z" />
<glyph unicode="&#xf707;" d="M-682 1227l127 162l74 -84l73 81l84 -92l50 58q12 12 26 2l29 -25q12 -12 2 -26l-105 -129l-90 102l-73 -82l-70 78l-72 -92q-10 -14 -26 -2l-27 22q-12 12 -2 27z" />
<glyph unicode="&#xf708;" d="M-532 1249v41q0 20 20 21h61v61q0 20 21 21h41q20 0 20 -21v-61h62q20 0 20 -21v-41q0 -20 -20 -20h-62v-62q0 -20 -20 -20h-41q-20 0 -21 20v62h-61q-20 0 -20 20z" />
<glyph unicode="&#xf709;" d="M-492 1249q0 78 33 111t111 33h274q20 0 31.5 7t26.5 23q10 12 22 0l33 -28q12 -12 0 -29q-18 -23 -43 -39t-66 -16h-278q-35 0 -48.5 -16.5t-13.5 -45.5q0 -20 -20 -20h-41q-20 0 -21 20z" />
<glyph unicode="&#xf70a;" d="M-389 1167v205q0 20 20 21h41q20 0 21 -21v-205q0 -20 -21 -20h-41q-20 0 -20 20z" />
<glyph unicode="&#xf70b;" d="M-487 1268q-14 14 0 28l26 27q14 14 29 0l63 -66l133 129q14 14 29 0l27 -26q14 -14 0 -29l-189 -184z" />
<glyph unicode="&#xf70c;" d="M-621 1227l127 162l74 -84l74 81l84 -92l49 58q12 12 27 2l28 -25q12 -12 2 -26l-104 -129l-90 102l-74 -82l-70 78l-71 -92q-10 -14 -27 -2l-26 22q-12 12 -3 27z" />
<glyph unicode="&#xf70d;" d="M-471 1249v41q0 20 20 21h62v61q0 20 20 21h41q20 0 21 -21v-61h61q20 0 21 -21v-41q0 -20 -21 -20h-61v-62q0 -20 -21 -20h-41q-20 0 -20 20v62h-62q-20 0 -20 20z" />
<glyph unicode="&#xf70e;" d="M-492 1249q0 78 33 111t111 33h274q20 0 31.5 7t26.5 23q10 12 22 0l33 -28q12 -12 0 -29q-18 -23 -43 -39t-66 -16h-278q-35 0 -48.5 -16.5t-13.5 -45.5q0 -20 -20 -20h-41q-20 0 -21 20z" />
<glyph unicode="&#xf70f;" horiz-adv-x="1351" d="M111 768q25 135 115.5 205.5t256.5 70.5q76 0 140.5 -19t110.5 -57t71.5 -96.5t25.5 -134.5v-338q0 -72 50.5 -102.5t122.5 -30.5t123 31t51 102v605q0 20 20 20h41q20 0 21 -20v-799q0 -106 -75 -160.5t-181 -54.5q-68 0 -123.5 21.5t-89.5 64.5q-14 18 4 28l32 23 q20 14 31 -4q23 -29 60.5 -40t85.5 -11q72 0 123 30.5t51 102.5v28q-72 -49 -174 -49q-106 0 -180 54.5t-74 160.5v338q0 115 -74 170.5t-193 55.5t-193.5 -45.5t-92.5 -139.5q27 -16 33 -38.5t6 -59.5v-537q0 -35 16 -48t45 -13h20q20 0 21 -21v-41q0 -20 -21 -20h-20 q-78 0 -110.5 33t-32.5 110v543q0 6 -6.5 34t-36.5 48z" />
<glyph unicode="&#xf710;" d="M-516 1325q0 20 20 21h45q20 0 21 -21q0 -23 9 -39t44 -16h479q20 0 21 -21v-41q0 -20 -21 -20h-479q-82 0 -110.5 29.5t-28.5 107.5z" />
<glyph unicode="&#xf711;" d="M-410 1270q0 39 28 66.5t65 27.5t65.5 -27.5t28.5 -66.5t-29 -65.5t-65 -26.5q-37 0 -65 26.5t-28 65.5zM-360 1270q0 -16 13 -29.5t30 -13.5q16 0 29.5 13t13.5 30q0 18 -13.5 30.5t-29.5 12.5t-29.5 -12.5t-13.5 -30.5z" />
<glyph unicode="&#xf712;" d="M-707 1366q0 39 15.5 73t41 60.5t60.5 41.5t74 15h254q23 0 35 17q10 23 28 8l27 -20q12 -16 2 -31q-16 -23 -39.5 -37t-52.5 -14h-254q-49 0 -82 -32t-33 -81q0 -47 30 -80t75 -39q33 29 72.5 65t68.5 58l139 -123q14 -10 4 -28l-22 -27q-18 -12 -33 2l-88 78l-119 -96 q-43 0 -80 14t-64.5 40.5t-43 60.5t-15.5 75z" />
<glyph unicode="&#xf713;" d="M-274 1475v163q0 20 20 21h29q20 0 20 -21v-163q0 -20 -20 -21h-29q-20 0 -20 21z" />
<glyph unicode="&#xf714;" d="M-391 1563q-14 14 0 28l20 21q14 14 29 0l55 -58l99 97q14 14 28 0l21 -21q14 -14 0 -28l-148 -146z" />
<glyph unicode="&#xf715;" d="M-514 1505l98 150l64 -84l61 82l62 -82l36 51q10 12 27 0l23 -18q14 -12 4 -25l-90 -119l-62 82l-61 -82l-60 80q-14 -20 -25.5 -36t-23.5 -36q-10 -18 -28 -4l-21 17q-14 10 -4 24z" />
<glyph unicode="&#xf716;" d="M-342 1544v29q0 20 20 20h48v45q0 20 20 21h29q20 0 20 -21v-45h47q20 0 21 -20v-29q0 -20 -21 -20h-47v-49q0 -20 -20 -21h-29q-20 0 -20 21v49h-48q-20 0 -20 20z" />
<glyph unicode="&#xf717;" d="M-446 1442q0 57 26.5 79.5t73.5 24.5h250q20 0 30 17q10 18 29 8l25 -21q14 -14 2 -28q-16 -20 -38 -33.5t-48 -13.5h-246q-29 0 -29 -33q0 -20 -20 -21h-35q-20 0 -20 21z" />
<glyph unicode="&#xf718;" d="M-217 -399q0 20 20 20q74 0 89.5 -28.5t15.5 -75.5v-70q0 -20 -21 -20h-30q-20 0 -21 20v70q0 29 -33 28q-20 0 -20 21v35z" />
<glyph unicode="&#xf719;" d="M-401 -399q0 20 20 20q37 0 56.5 -6t27.5 -16.5t9 -25t1 -32.5q0 -25 10.5 -35t51.5 -10q29 0 45 5t16 26v74q0 20 21 20h30q20 0 21 -20v-93q0 -53 -30 -67t-103 -14q-74 0 -103.5 12t-29.5 65v13q0 16 -3.5 22t-19.5 6q-20 0 -20 21v35z" />
<glyph unicode="&#xf71a;" d="M-176 -426q0 25 17.5 41t39.5 16q25 0 41.5 -16t16.5 -41q0 -23 -16.5 -40t-41.5 -17q-23 0 -40 17t-17 40z" />
<glyph unicode="&#xf71d;" horiz-adv-x="1009" d="M72 963v41q0 20 20 20q78 0 111 -33t33 -110v-633l282 715q6 14 14 14q6 0 9.5 -5t5.5 -9l282 -715v536q0 66 -30.5 107t-96.5 41q-20 0 -20 20v41q0 20 20 21q70 0 102 34.5t32 98.5q0 20 20 20h41q20 0 21 -20q0 -125 -76 -180q70 -61 69 -183v-764q0 -20 -20 -20h-41 q-16 0 -21 14l-297 754l-299 -758q-6 -10 -18 -10h-41q-20 0 -20 20v861q0 35 -16.5 48t-45.5 13q-20 0 -20 21z" />
<glyph unicode="&#xfb00;" horiz-adv-x="983" d="M92 963v45q0 20 21 20h61v242q0 86 59.5 145.5t145.5 59.5h102q20 0 21 -21v-45q0 -20 -21 -20h-102q-51 0 -87 -34t-36 -85v-242h389v242q0 86 59.5 145.5t145.5 59.5h102q20 0 21 -21v-45q0 -20 -21 -20h-102q-51 0 -87 -34t-36 -85v-242h184q20 0 21 -20v-45 q0 -20 -21 -21h-184v-922q0 -20 -20 -20h-41q-20 0 -21 20v922h-389v-922q0 -20 -20 -20h-41q-20 0 -21 20v922h-61q-20 0 -21 21z" />
<glyph unicode="&#xfb01;" horiz-adv-x="819" d="M92 963v45q0 20 21 20h61v242q0 86 59.5 145.5t145.5 59.5h102q20 0 21 -21v-45q0 -20 -21 -20h-102q-51 0 -87 -34t-36 -85v-242h270q82 -4 139.5 -61.5t61.5 -139.5v-807q0 -20 -20 -20h-41q-20 0 -21 20v803q0 51 -36 85t-87 34h-266v-922q0 -20 -20 -20h-41 q-20 0 -21 20v922h-61q-20 0 -21 21z" />
<glyph unicode="&#xfb02;" horiz-adv-x="860" d="M92 963v45q0 20 21 20h61v242q0 86 59.5 145.5t145.5 59.5h328q20 0 20 -21v-1331q0 -41 41 -41q20 0 20 -21v-41q0 -20 -20 -20q-57 0 -90 26.5t-33 88.5v1274h-266q-51 0 -87 -34t-36 -85v-242h205q20 0 20 -20v-45q0 -20 -20 -21h-205v-922q0 -20 -20 -20h-41 q-20 0 -21 20v922h-61q-20 0 -21 21z" />
<glyph unicode="&#xfb03;" horiz-adv-x="1228" d="M92 963v45q0 20 21 20h61v242q0 86 59.5 145.5t145.5 59.5h102q20 0 21 -21v-45q0 -20 -21 -20h-102q-51 0 -87 -34t-36 -85v-242h328v242q0 86 59 145.5t145 59.5h103q20 0 20 -21v-45q0 -20 -20 -20h-103q-51 0 -86.5 -34t-35.5 -85v-242h266q41 0 79 -15.5t65.5 -43 t44 -64.5t16.5 -78v-807q0 -20 -21 -20h-41q-20 0 -20 20v807q-4 47 -38 80t-81 35h-270v-922q0 -20 -21 -20h-41q-20 0 -20 20v922h-328v-922q0 -20 -20 -20h-41q-20 0 -21 20v922h-61q-20 0 -21 21z" />
<glyph unicode="&#xfb04;" horiz-adv-x="1331" d="M92 963v45q0 20 21 20h61v242q0 86 59.5 145.5t145.5 59.5h102q20 0 21 -21v-45q0 -20 -21 -20h-102q-51 0 -87 -34t-36 -85v-242h389v242q0 86 59.5 145.5t145.5 59.5h328q20 0 20 -21v-1331q0 -41 41 -41q20 0 21 -21v-41q0 -20 -21 -20q-57 0 -90 26.5t-33 88.5v1274 h-266q-51 0 -87 -34t-36 -85v-242h205q20 0 20 -20v-45q0 -20 -20 -21h-205v-922q0 -20 -20 -20h-41q-20 0 -21 20v922h-389v-922q0 -20 -20 -20h-41q-20 0 -21 20v922h-61q-20 0 -21 21z" />
<glyph horiz-adv-x="751" d="M-395 1284q0 45 31.5 77t74.5 32t76 -32t33 -77t-33 -75.5t-76 -30.5t-74.5 30.5t-31.5 75.5zM-336 1284q0 -20 13.5 -33.5t33.5 -13.5t32.5 13.5t12.5 33.5q0 45 -45 45q-20 0 -33.5 -12.5t-13.5 -32.5zM47 850q35 92 113 143t182 51q68 0 126 -22.5t100 -62t66.5 -97 t24.5 -125.5v-717q0 -20 -20 -20h-41q-20 0 -20 20v717q0 100 -67 163t-169 63q-78 0 -135 -37t-84 -103q-8 -18 -27 -12l-37 12q-18 7 -12 27z" />
<glyph d="M-582 1298q0 49 36 84t81 50q-37 33 -37 81q0 66 54.5 95.5t125.5 29.5q18 0 44 -4t52.5 -12t51 -18.5t41.5 -24.5q18 -12 6 -29l-18 -24q-4 -4 -10.5 -6t-16.5 6q-29 23 -74 32t-76 9q-10 0 -28.5 -1t-34.5 -7.5t-28.5 -17.5t-12.5 -30q0 -27 23.5 -42t33.5 -19t15.5 -5 t5.5 -11v-31q0 -20 -21 -21q-23 0 -47 -5t-43.5 -15t-32 -26.5t-12.5 -37.5q0 -41 31 -55t63 -14q33 0 53.5 12.5t43.5 28.5q14 10 24 0l27 -27q6 -8 6 -14t-10 -17q-61 -55 -144 -55q-25 0 -55.5 6t-56 22.5t-43 43t-17.5 69.5z" />
<glyph horiz-adv-x="819" d="M92 963v45q0 20 21 20h61v242q0 86 59.5 145.5t145.5 59.5h102q20 0 21 -21v-45q0 -20 -21 -20h-102q-51 0 -87 -34t-36 -85v-242h270q82 -4 139.5 -60.5t61.5 -138.5v-1013q0 -68 -48 -116t-116 -48h-102q-20 0 -21 20v45q0 20 21 21h102q35 0 58.5 23.5t23.5 58.5v1009 q-4 47 -38 79t-81 34h-270v-922q0 -20 -20 -20h-41q-20 0 -21 20v922h-61q-20 0 -21 21z" />
<glyph horiz-adv-x="1290" d="M92 963v45q0 20 21 20h61v242q0 86 59.5 145.5t145.5 59.5h102q20 0 21 -21v-45q0 -20 -21 -20h-102q-51 0 -87 -34t-36 -85v-242h389v242q0 86 59.5 145.5t145.5 59.5h102q20 0 21 -21v-45q0 -20 -21 -20h-102q-51 0 -87 -34t-36 -85v-242h270q82 -4 139.5 -60.5 t61.5 -138.5v-1013q0 -68 -48 -116t-116 -48h-102q-20 0 -21 20v45q0 20 21 21h102q35 0 58.5 23.5t23.5 58.5v1009q-4 49 -39 81t-84 32h-266v-922q0 -20 -20 -20h-41q-20 0 -21 20v922h-389v-922q0 -20 -20 -20h-41q-20 0 -21 20v922h-61q-20 0 -21 21z" />
<glyph horiz-adv-x="921" d="M92 963v45q0 20 21 20h61v242q0 86 59.5 145.5t145.5 59.5h102q20 0 21 -21v-45q0 -20 -21 -20h-102q-51 0 -87 -34t-36 -85v-242h389v242q0 20 21 20h41q20 0 20 -20v-242h123q20 0 20 -20v-45q0 -20 -20 -21h-123v-922q0 -20 -20 -20h-41q-20 0 -21 20v922h-389v-922 q0 -20 -20 -20h-41q-20 0 -21 20v922h-61q-20 0 -21 21z" />
<glyph horiz-adv-x="1392" d="M92 963v45q0 20 21 20h61v242q0 86 59.5 145.5t145.5 59.5h102q20 0 21 -21v-45q0 -20 -21 -20h-102q-51 0 -87 -34t-36 -85v-242h389v242q0 86 59.5 145.5t145.5 59.5h102q20 0 21 -21v-45q0 -20 -21 -20h-102q-51 0 -87 -34t-36 -85v-242h389v242q0 20 21 20h41 q20 0 20 -20v-242h123q20 0 20 -20v-45q0 -20 -20 -21h-123v-922q0 -20 -20 -20h-41q-20 0 -21 20v922h-389v-922q0 -20 -20 -20h-41q-20 0 -21 20v922h-389v-922q0 -20 -20 -20h-41q-20 0 -21 20v922h-61q-20 0 -21 21z" />
<glyph horiz-adv-x="888" d="M31 963v45q0 20 20 20h123v242q0 20 21 20h41q20 0 20 -20v-242h356v242q0 20 21 20h41q20 0 20 -20v-242h123q20 0 21 -20v-45q0 -20 -21 -21h-123v-922q0 -20 -20 -20h-41q-20 0 -21 20v922h-356v-922q0 -20 -20 -20h-41q-20 0 -21 20v922h-123q-20 0 -20 21z" />
</font>
</defs>
</svg>
