<?xml version="1.0" standalone="no"?>
<!DOCTYPE svg PUBLIC "-//W3C//DTD SVG 1.1//EN" "http://www.w3.org/Graphics/SVG/1.1/DTD/svg11.dtd" >
<svg xmlns="http://www.w3.org/2000/svg">
<metadata></metadata>
<defs>
<font id="cordia_newregular" horiz-adv-x="746" >
<font-face units-per-em="2048" ascent="1638" descent="-410" />
<missing-glyph horiz-adv-x="373" />
<glyph horiz-adv-x="0" />
<glyph horiz-adv-x="373" />
<glyph unicode=" "  horiz-adv-x="373" />
<glyph unicode="&#x09;" horiz-adv-x="373" />
<glyph unicode="&#xa0;" horiz-adv-x="373" />
<glyph unicode="!" horiz-adv-x="447" d="M167 0v127h113v-127h-113zM174 745v215h99v-215l-23 -507h-54z" />
<glyph unicode="&#x22;" horiz-adv-x="373" d="M52 804v156h98v-156l-20 -177h-58zM226 804v156h99v-156l-21 -177h-58z" />
<glyph unicode="#" d="M32 281v61h124l53 261h-177v60h190l56 274h62l-56 -274h252l60 274h62l-56 -274h108v-60h-121l-53 -261h174v-61h-189l-59 -272h-59l59 272h-258l-59 -272h-59l59 272h-113zM216 342h256l54 261h-256z" />
<glyph unicode="$" d="M50 260l81 11q44 -204 213 -220v411q-72 20 -115 36t-79.5 45t-55.5 75q-20 46 -20 104q0 74 31.5 128.5t91.5 87t147 39.5v57h50v-57q204 -18 254 -229l-82 -11q-34 149 -172 169v-374q170 -50 225 -112.5t55 -157.5q0 -118 -74 -191t-206 -87v-120h-50v120 q-250 8 -294 276zM152 724q0 -34 10 -61t31 -49t58.5 -38t92.5 -30v361q-192 -15 -192 -183zM394 50q201 28 201 205q0 43 -16.5 78.5t-51.5 60.5t-133 55v-399z" />
<glyph unicode="%" horiz-adv-x="1193" d="M83 718q0 114 52 186.5t145 72.5q94 0 146 -68.5t52 -184.5q0 -252 -198 -252q-46 0 -82 17t-62 50t-39.5 78t-13.5 101zM156 724q0 -194 126 -194q122 0 123 192q-1 192 -123 192q-126 0 -126 -190zM280 -36l562 1013h66l-560 -1013h-68zM712 212q0 80 25 138t68 88.5 t103 30.5q50 0 88 -19.5t62.5 -55.5t36 -80t11.5 -98q0 -252 -198 -252q-93 0 -144.5 68t-51.5 180zM784 217q0 -195 126 -195q123 0 123 192q0 194 -123 193q-126 0 -126 -190z" />
<glyph unicode="&#x26;" horiz-adv-x="895" d="M76 264q0 40 11 75.5t33 67.5t64 64.5t116 74.5q-53 69 -79.5 119.5t-26.5 94.5q0 92 64 154.5t156 62.5q65 0 113.5 -27.5t75.5 -73.5q27 -48 27 -110q0 -132 -207 -236q88 -108 213 -254q18 32 40 79l34 90l82 -17q-44 -128 -96 -218l77 -80q26 -26 83 -74l-56 -72 q-78 60 -154 148q-110 -148 -266 -148q-90 0 -158.5 38t-107 100t-38.5 142zM164 279q0 -88 63 -153.5t147 -65.5q122 0 213 136q-129 132 -243 290q-111 -62 -145.5 -109t-34.5 -98zM282 771q0 -17 6.5 -39t22 -48t65.5 -94q166 84 167 180q0 55 -36.5 93t-90.5 38 q-56 0 -95 -37.5t-39 -92.5z" />
<glyph unicode="'" horiz-adv-x="298" d="M98 804v156h97v-156l-19 -176h-58z" />
<glyph unicode="(" horiz-adv-x="447" d="M102 410q0 107 21 204.5t73 205.5t134 224h59q-201 -318 -201 -639q0 -322 206 -620h-64q-228 313 -228 625z" />
<glyph unicode=")" horiz-adv-x="447" d="M54 1044h64q228 -313 228 -624q0 -174 -58 -323.5t-170 -311.5h-59q201 320 201 640q0 321 -206 619z" />
<glyph unicode="*" horiz-adv-x="522" d="M51 798l25 69l78 -33l82 -36l-15 179h75l-12 -179l79 36l81 33l22 -69l-82 -23l-84 -19l56 -68l58 -66l-58 -44l-50 74l-46 74l-91 -148l-59 44l52 66l59 68l-86 19z" />
<glyph unicode="+" horiz-adv-x="886" d="M89 442v60h321v321h62v-321h320v-60h-320v-322h-62v322h-321z" />
<glyph unicode="," horiz-adv-x="373" d="M128 -131q32 24 46 49q14 26 14 82h-53v127h114v-127q0 -117 -86 -179z" />
<glyph unicode="-" horiz-adv-x="447" d="M48 330v85h352v-85h-352z" />
<glyph unicode="." horiz-adv-x="373" d="M132 0v127h114v-127h-114z" />
<glyph unicode="/" horiz-adv-x="373" d="M0 -24l314 1001h62l-312 -1001h-64z" />
<glyph unicode="0" d="M66 454q0 136 18 232t56.5 156t96 89t133.5 29q304 0 304 -488t-304 -488t-304 470zM152 466q0 -100 9.5 -172.5t34 -127t69.5 -84.5t109 -30q216 0 216 420q0 422 -218 422q-57 0 -99.5 -25t-70.5 -76.5t-39 -131t-11 -195.5z" />
<glyph unicode="1" d="M152 648v72q206 112 270 240h54v-960h-81v802q-109 -104 -243 -154z" />
<glyph unicode="2" d="M48 0q6 48 22 92t77 113t177 159q80 62 124 99t75 76t45 76t14 77q0 60 -26.5 105t-74 71t-109.5 26q-182 0 -216 -210l-86 12q14 124 95 194t211 70q128 0 210 -74t82 -191q0 -70 -31 -131.5t-89 -114.5q-56 -53 -184 -150q-152 -115 -208 -221h513v-78h-621z" />
<glyph unicode="3" d="M66 243l80 12q46 -204 218 -204q66 0 116 29.5t78.5 80.5t28.5 119q0 91 -58.5 145t-152.5 54q-32 0 -86 -11l9 72q74 0 116 13t71.5 37t43.5 57t14 75q0 76 -51 124t-130 48q-154 0 -203 -189l-82 15q60 240 284 240q122 0 196 -65.5t74 -178.5q0 -134 -142 -200 q187 -48 187 -234q0 -134 -86.5 -216t-225.5 -82q-246 0 -299 259z" />
<glyph unicode="4" d="M24 239v73l461 648h64v-648h131v-73h-131v-239h-81v239h-444zM103 312h365v515z" />
<glyph unicode="5" d="M66 237l82 10q41 -195 222 -195q58 0 107 27t84 86t35 143q0 104 -62 171t-159 67q-113 0 -221 -106l-69 10l92 498h461v-76h-400l-61 -328q106 74 211 74q124 0 209 -88t85 -215q0 -67 -24 -127.5t-66 -106t-103 -71.5t-132 -26q-227 0 -291 253z" />
<glyph unicode="6" d="M59 446q0 170 36 279.5t113.5 172t190.5 62.5q211 0 259 -222l-82 -9q-42 164 -180 164q-40 0 -75 -13t-63 -38.5t-47.5 -58t-31.5 -65t-21.5 -91.5t-15.5 -160q104 139 258 139q124 0 202 -83.5t78 -213.5q0 -96 -39 -169t-106 -114.5t-155 -41.5q-80 0 -142 31t-103 92 t-58.5 142t-17.5 197zM162 309q0 -104 62 -181t158 -77q93 0 150.5 72.5t57.5 176.5q0 103 -56 167.5t-149 64.5q-96 0 -159.5 -63.5t-63.5 -159.5z" />
<glyph unicode="7" d="M72 874v74h608v-54q-181 -208 -268.5 -424t-107.5 -470h-88q7 110 28.5 214t56.5 201t89 192t185 267h-503z" />
<glyph unicode="8" d="M61 277q0 85 40 145.5t135 94.5q-136 63 -136 197q0 72 35 127t95.5 87t139.5 32q80 0 140.5 -32t95.5 -87t35 -127q0 -135 -137 -197q176 -60 176 -240q0 -144 -93 -218.5t-217 -74.5q-91 0 -158 33.5t-109 104.5t-42 155zM145 270q0 -100 61.5 -159t163.5 -59t163 59 t61 159q0 64 -27 110t-77 72t-120 26t-120 -26t-77.5 -72t-27.5 -110zM182 713q0 -74 54 -120.5t134 -46.5t134 46.5t54 120.5q0 54 -24.5 94t-66 63.5t-97.5 23.5t-98 -24t-66 -64t-24 -93z" />
<glyph unicode="9" d="M62 634q0 142 84 234t216 92q98 0 168 -47t111 -144t41 -271q0 -170 -36 -280t-114 -172t-190 -62q-211 0 -259 222l81 9q44 -165 182 -165q78 0 137 52t83 130t34 244q-104 -138 -258 -138q-123 0 -201.5 83.5t-78.5 212.5zM150 644q0 -103 57 -167.5t149 -64.5 q96 0 160 63.5t64 159.5q0 52 -16 97.5t-47 83.5t-70 57.5t-87 19.5q-93 0 -151.5 -72.5t-58.5 -176.5z" />
<glyph unicode=":" horiz-adv-x="373" d="M132 0v127h114v-127h-114zM132 568v128h114v-128h-114z" />
<glyph unicode=";" horiz-adv-x="373" d="M128 -131q32 24 46 49q14 26 14 82h-53v127h114v-127q0 -117 -86 -179zM135 568v128h114v-128h-114z" />
<glyph unicode="&#x3c;" horiz-adv-x="886" d="M88 444v54l704 298v-66l-623 -259l623 -257v-66z" />
<glyph unicode="=" horiz-adv-x="886" d="M88 282v60h704v-60h-704zM88 604v58h704v-58h-704z" />
<glyph unicode="&#x3e;" horiz-adv-x="886" d="M88 148v66l624 258l-624 258v66l704 -296v-54z" />
<glyph unicode="?" horiz-adv-x="671" d="M58 720q62 256 292 257q81 0 141 -32.5t93 -88.5q34 -58 34 -134q0 -116 -136 -242q-42 -40 -69.5 -73.5t-36.5 -74.5t-9 -95h-83v55q2 34 8 64t17 55t36 55t63 64q119 108 119 192q0 76 -54 128t-131 52q-148 0 -195 -196zM273 0v126h113v-126h-113z" />
<glyph unicode="@" horiz-adv-x="1073" d="M0 337q0 172 74.5 303.5t199 202.5t294.5 71q148 0 253 -56t170 -168t65 -252q0 -90 -23.5 -165t-70 -133t-115 -99t-129.5 -41q-79 0 -79 70q0 18 5 51q-104 -121 -224 -121q-50 0 -90 19.5t-72 59t-48 89.5t-16 109q0 60 16 119t48 113.5t73.5 91.5t93.5 58 q53 21 103 21q61 0 112 -29t88 -96l22 109h82l-112 -526q-8 -36 -7 -53q-1 -26 31 -26q20 0 44 9.5t63.5 36.5t76 77.5t55 114t18.5 141.5q0 91 -30.5 170t-85.5 136.5t-136.5 86.5t-184.5 29q-225 0 -367.5 -147t-142.5 -377q0 -155 65 -268.5t180 -178t271 -64.5 q133 0 242.5 47t197.5 159h67q-82 -130 -211.5 -193.5t-295.5 -63.5q-104 0 -193 26t-160 76.5t-118.5 120.5t-73 156.5t-25.5 183.5zM276 272q0 -90 46 -150t123 -60q49 0 94 32t83 92t56.5 122t18.5 128q0 82 -47.5 134.5t-121.5 52.5q-110 0 -181 -111t-71 -240z" />
<glyph unicode="A" horiz-adv-x="895" d="M0 0l390 960h96l408 -960h-102l-125 306h-448l-121 -306h-98zM247 382h389l-199 483z" />
<glyph unicode="B" horiz-adv-x="895" d="M116 0v960h362q90 0 156.5 -28t103 -83t36.5 -131q0 -62 -30.5 -116t-106.5 -97q98 -32 140.5 -92.5t42.5 -142.5q0 -81 -33 -139.5t-103 -94.5q-68 -36 -166 -36h-402zM208 78h300q64 0 112.5 21t77 64t28.5 107q0 86 -58 136t-156 50h-304v-378zM208 538h282 q60 0 103 21.5t67 60t24 92.5q0 43 -15 75.5t-43 53t-73 30t-111 9.5h-234v-342z" />
<glyph unicode="C" horiz-adv-x="969" d="M74 479q0 219 120 358.5t321 139.5q136 0 232.5 -67.5t149.5 -213.5l-87 -24q-80 230 -289 230q-162 0 -257.5 -120t-95.5 -304q0 -207 96 -313.5t243 -106.5q241 0 320 266l83 -22q-96 -318 -398 -318q-102 0 -181 32t-135 95.5t-89 161.5t-33 206z" />
<glyph unicode="D" horiz-adv-x="969" d="M116 0v960h370q138 0 230 -65t134 -174t42 -235q0 -230 -107 -358t-299 -128h-370zM208 80h226q83 0 141.5 14t112.5 63t81 133q27 82 27 202q0 388 -362 388h-226v-800z" />
<glyph unicode="E" horiz-adv-x="819" d="M121 0v960h614v-80h-523v-346h484v-78h-484v-376h543v-80h-634z" />
<glyph unicode="F" d="M116 0v960h568v-80h-476v-348h406v-78h-406v-454h-92z" />
<glyph unicode="G" horiz-adv-x="1043" d="M78 468q0 160 58 273t164 174.5t255 61.5q152 0 251.5 -67.5t138.5 -206.5l-89 -27q-74 226 -307 226q-174 0 -276 -116q-102 -114 -102 -308q0 -118 42.5 -211t128.5 -150t209 -57q175 0 318 104v236h-305v78h394v-356q-190 -138 -398 -138q-76 0 -142 16.5t-121.5 49 t-101 81.5t-69.5 97.5t-36 108.5q-12 59 -12 131z" />
<glyph unicode="H" horiz-adv-x="969" d="M114 0v960h90v-414h558v414h88v-960h-88v466h-558v-466h-90z" />
<glyph unicode="I" horiz-adv-x="373" d="M144 0v960h90v-960h-90z" />
<glyph unicode="J" horiz-adv-x="671" d="M33 264l83 10q14 -215 176 -215q170 0 170 215v686h91v-686q-1 -290 -271 -290q-236 0 -249 280z" />
<glyph unicode="K" horiz-adv-x="895" d="M118 0v960h91v-502l543 502h122l-432 -392l450 -568h-120l-390 513l-173 -157v-356h-91z" />
<glyph unicode="L" d="M116 0v960h91v-882h484v-78h-575z" />
<glyph unicode="M" horiz-adv-x="1117" d="M119 0v960h127l310 -831l313 831h129v-960h-90l14 862l-328 -862h-76l-324 862l15 -862h-90z" />
<glyph unicode="N" horiz-adv-x="969" d="M116 0v960h90l560 -828l-6 828h89v-960h-96l-554 818l7 -818h-90z" />
<glyph unicode="O" horiz-adv-x="1043" d="M78 480q0 224 119 360.5t327 136.5q140 0 239 -61t154 -172.5t55 -263.5q0 -225 -119 -360.5t-329 -135.5q-138 0 -236 60t-154 171t-56 265zM172 480q0 -186 95 -304t257 -118q108 0 185 51.5t122 147t45 223.5q0 189 -94 305.5t-258 116.5q-166 0 -259 -117t-93 -305z " />
<glyph unicode="P" horiz-adv-x="819" d="M121 0v960h333q146 0 228 -72q82 -70 82 -202q0 -58 -20.5 -110t-58 -91t-97.5 -59q-62 -20 -134 -20h-242v-406h-91zM212 486h217q240 0 240 196t-240 196h-217v-392z" />
<glyph unicode="Q" horiz-adv-x="1043" d="M78 480q0 224 119 360.5t327 136.5q139 0 237.5 -59.5t154.5 -171.5t56 -266q0 -242 -142 -384q80 -58 162 -96l-25 -64q-86 30 -198 112q-104 -64 -245 -64q-104 0 -186 34t-141.5 101.5t-89 158t-29.5 202.5zM172 480q0 -186 95 -304t257 -118q86 0 168 45 q-69 53 -160 82l21 67q96 -20 202 -104q121 115 121 332q0 130 -45 225t-122 146t-185 51q-164 0 -258 -118.5t-94 -303.5z" />
<glyph unicode="R" horiz-adv-x="895" d="M118 0v960h404q92 0 157 -30.5t99 -87t34 -138.5q0 -230 -278 -256q102 -52 176 -166l183 -282h-116l-129 203q-80 126 -115 162.5t-82 56.5t-103 20h-138v-442h-92zM210 520h252q254 0 255 184q0 40 -13.5 71.5t-43 57.5t-77 36.5t-116.5 10.5h-257v-360z" />
<glyph unicode="S" horiz-adv-x="819" d="M61 289l91 8q11 -118 79.5 -178.5t179.5 -60.5q82 0 139.5 25t88.5 74t31 103q0 145 -252 191q-170 31 -244 95q-74 62 -74 174q0 118 86 187.5t220 69.5q149 0 231.5 -66.5t90.5 -203.5l-89 -4q-16 199 -226 199q-97 0 -161 -46q-64 -48 -64 -128q0 -138 230 -183 q170 -34 254 -96.5t84 -182.5q0 -64 -22 -114.5t-68.5 -89t-109 -58.5t-138.5 -20q-328 0 -357 305z" />
<glyph unicode="T" d="M30 876v84h680v-84h-294v-876h-92v876h-294z" />
<glyph unicode="U" horiz-adv-x="969" d="M114 352v608h93v-614q1 -288 277 -288q274 0 274 286v616h92v-607q0 -369 -364 -369q-372 0 -372 368z" />
<glyph unicode="V" horiz-adv-x="819" d="M10 960h98l302 -862l314 862h90l-358 -960h-94z" />
<glyph unicode="W" horiz-adv-x="1193" d="M14 960h93l208 -832l223 832h112l222 -826l215 826h87l-258 -960h-90l-230 859l-236 -859h-90z" />
<glyph unicode="X" horiz-adv-x="819" d="M8 0l362 501l-310 459h107l253 -385l276 385h94l-319 -449l346 -511h-111l-286 428l-304 -428h-108z" />
<glyph unicode="Y" horiz-adv-x="819" d="M11 960h107l294 -460l300 460h102l-362 -546v-414h-91v414z" />
<glyph unicode="Z" horiz-adv-x="819" d="M34 0v84l620 798h-566v78h678v-78l-626 -804h640v-78h-746z" />
<glyph unicode="[" horiz-adv-x="447" d="M104 -200v1230h308v-68h-227v-1094h227v-68h-308z" />
<glyph unicode="\" horiz-adv-x="373" d="M0 977h63l313 -1001h-62z" />
<glyph unicode="]" horiz-adv-x="447" d="M34 -132h228v1094h-228v68h310v-1230h-310v68z" />
<glyph unicode="^" horiz-adv-x="886" d="M147 624l293 353l293 -353l-43 -34l-250 302l-252 -302z" />
<glyph unicode="_" horiz-adv-x="671" d="M-8 -101h687v-67h-687v67z" />
<glyph unicode="`" horiz-adv-x="447" d="M84 960h130l84 -173h-66z" />
<glyph unicode="a" d="M61 178q0 44 13.5 78.5t41.5 61t76 45t171 35.5q139 18 195 40q0 60 -3.5 92t-22.5 60t-58.5 43t-97.5 15q-180 0 -217 -154l-83 12q38 206 300 206q82 0 137.5 -19t83 -53t35.5 -85t8 -139l-2 -196v-17q0 -66 7 -103q8 -42 35 -100h-89q-19 49 -25 106 q-113 -122 -285 -122q-62 0 -111.5 22t-79.5 66q-29 44 -29 106zM147 184q0 -57 42.5 -91.5t108.5 -34.5q39 0 77 10t74.5 30t61 49t36 74t11.5 108v45q-70 -26 -220 -52q-80 -14 -117 -29t-55.5 -43t-18.5 -66z" />
<glyph unicode="b" horiz-adv-x="819" d="M108 0v960h82v-378q104 130 262 130q148 0 228 -102t80 -256q0 -167 -83.5 -268.5t-232.5 -101.5q-152 0 -254 122v-106h-82zM188 337q0 -132 67 -208.5t182 -76.5q55 0 98.5 21t75.5 63t48.5 94.5t16.5 115.5q0 130 -62.5 214t-171.5 84q-119 0 -186.5 -82t-67.5 -225z " />
<glyph unicode="c" d="M60 348q0 76 17.5 137t42 99t57.5 65t79 45t120 18q228 0 298 -213l-86 -13q-46 156 -214 156q-54 0 -96.5 -19.5t-72 -58.5t-44.5 -90.5t-15 -116.5q0 -138 60 -222.5t170 -84.5q159 0 227 188l81 -12q-40 -118 -114 -180t-197 -62q-94 0 -162 39t-109 123 q-42 84 -42 202z" />
<glyph unicode="d" horiz-adv-x="819" d="M64 354q0 156 81 257t230 101q162 0 260 -130v378h81v-960h-81v106q-109 -122 -261 -122q-72 0 -129 26t-98 77t-62 118t-21 149zM150 346q0 -126 64 -210t174 -84q118 0 183 78.5t65 219.5q0 133 -69 213.5t-185 80.5q-108 0 -170 -84t-62 -214z" />
<glyph unicode="e" d="M62 348q0 168 84 266t232 98q302 0 304 -374h-535q2 -135 63.5 -211t171.5 -76q152 0 212 169l80 -14q-41 -119 -114.5 -170.5t-183.5 -51.5q-148 0 -231 98t-83 266zM150 405h444q-19 241 -218 241q-90 0 -152 -62.5t-74 -178.5z" />
<glyph unicode="f" horiz-adv-x="373" d="M22 634v62h112v72q0 72 14 114t55 68.5t101 26.5q34 -1 100 -17l-14 -66q-48 8 -68 8q-35 0 -58 -11t-36 -37t-13 -98v-60h145v-62h-145v-634h-81v634h-112z" />
<glyph unicode="g" horiz-adv-x="819" d="M66 346q0 110 41 195t108 128t161 43q80 0 143 -29t116 -105v118h81v-640q0 -116 -35.5 -191.5t-110 -111t-190.5 -35.5q-272 0 -286 204l80 -14q26 -124 194 -124q268 0 267 254v68q-60 -74 -121.5 -98t-138.5 -24q-70 0 -126 25t-98 74t-63.5 115t-21.5 148zM152 348 q0 -132 63 -215t175 -83q66 0 119 29t89.5 94.5t36.5 166.5q0 136 -64.5 219t-179.5 83q-59 0 -102 -21t-74.5 -59.5t-47 -92t-15.5 -121.5z" />
<glyph unicode="h" d="M103 0v960h82v-367q94 119 224 119q237 0 237 -258v-454h-83v432q0 112 -43.5 160t-117.5 48q-40 0 -75 -13.5t-64.5 -40t-47 -61.5t-24 -77t-6.5 -146v-302h-82z" />
<glyph unicode="i" horiz-adv-x="298" d="M106 0v696h82v-696h-82zM106 838v122h82v-122h-82z" />
<glyph unicode="j" horiz-adv-x="298" d="M-42 -268l17 72q29 -8 51 -8q26 0 44 10t27 32t9 96v762h82v-752q0 -60 -3 -95t-19 -66t-47 -48t-77 -17q-28 0 -84 14zM106 840v120h82v-120h-82z" />
<glyph unicode="k" horiz-adv-x="671" d="M108 0v960h82v-587l338 323h116l-290 -260l311 -436h-106l-265 380l-104 -93v-287h-82z" />
<glyph unicode="l" horiz-adv-x="298" d="M106 0v960h82v-960h-82z" />
<glyph unicode="m" horiz-adv-x="1117" d="M107 0v696h81v-100q88 116 214 116q132 0 184 -116q92 116 218 116q206 0 207 -238v-474h-81v431q0 96 -16 134t-49 57.5t-78 19.5q-64 0 -107.5 -36t-61 -98t-17.5 -166v-342h-81v440q0 72 -12.5 113t-45 63.5t-81.5 22.5q-88 0 -140.5 -72.5t-52.5 -195.5v-371h-81z " />
<glyph unicode="n" d="M103 0v696h82v-103q94 119 224 119q237 0 237 -258v-454h-83v432q0 112 -43.5 160t-117.5 48q-40 0 -75 -13.5t-64.5 -40t-47 -61.5t-24 -77t-6.5 -146v-302h-82z" />
<glyph unicode="o" d="M59 344q0 83 18.5 148t55 112.5t92.5 77.5q57 30 145 30q142 0 226 -93t84 -273q0 -172 -81 -267t-230 -95q-72 0 -128.5 25t-98 75t-62.5 115t-21 145zM145 350q0 -133 60.5 -216.5t167.5 -83.5q50 0 89.5 18.5t69.5 56.5t47 94t17 127q0 94 -28 161t-77 102t-119 35 q-108 0 -167.5 -80t-59.5 -214z" />
<glyph unicode="p" horiz-adv-x="819" d="M108 -266v962h82v-114q108 130 261 130q69 0 124 -22.5t96 -69t65 -114.5t24 -152q0 -167 -83.5 -268.5t-232.5 -101.5q-152 0 -254 122v-372h-82zM188 337q0 -132 67 -208.5t182 -76.5q55 0 98.5 21t75.5 63t48.5 94.5t16.5 115.5q0 90 -30 158t-81 103t-123 35 q-59 0 -105 -19t-79.5 -59t-51.5 -97t-18 -130z" />
<glyph unicode="q" horiz-adv-x="819" d="M64 354q0 156 81 257t230 101q162 0 260 -130v114h81v-962h-81v372q-110 -122 -261 -122q-70 0 -126 25t-98 75t-64 118t-22 152zM150 346q0 -126 64 -210t174 -84q118 0 183 78.5t65 219.5q0 133 -69 213.5t-185 80.5q-108 0 -170 -84t-62 -214z" />
<glyph unicode="r" horiz-adv-x="447" d="M107 0v696h72v-141q53 157 163 157q56 0 122 -42l-31 -71q-63 27 -93 27q-24 0 -45 -8t-39 -25t-31 -39.5t-19 -50t-12 -80.5t-6 -96v-327h-81z" />
<glyph unicode="s" horiz-adv-x="671" d="M50 188l83 14q18 -80 71.5 -116t132.5 -36q54 0 96.5 18t64.5 48t22 70q0 37 -25 63.5t-67 41.5t-118 31q-238 50 -238 194q0 90 70 143t176 53q211 0 258 -184l-80 -12q-22 74 -60 101t-116 27q-49 0 -88.5 -14.5t-58.5 -39t-19 -58.5t17.5 -58t68 -43t128.5 -37 q148 -34 193 -82.5t45 -114.5t-32.5 -113t-94 -73.5t-145.5 -26.5q-54 0 -98 10t-80 31.5t-63 58t-43 104.5z" />
<glyph unicode="t" horiz-adv-x="373" d="M29 634v62h97v178l82 52v-230h132v-62h-132v-456q0 -48 6.5 -72.5t24.5 -35.5q17 -12 47 -12q22 0 65 8l11 -66q-54 -11 -87 -11q-48 0 -81.5 15.5t-50.5 47.5t-17 116v466h-97z" />
<glyph unicode="u" d="M96 242v454h82v-432q0 -114 44 -161.5t118 -47.5q49 0 91 20.5t74.5 62.5t41.5 98t9 158v302h82v-696h-82v103q-92 -119 -224 -119q-236 0 -236 258z" />
<glyph unicode="v" horiz-adv-x="671" d="M19 696h87l229 -596l231 596h86l-278 -696h-76z" />
<glyph unicode="w" horiz-adv-x="969" d="M6 696h86l186 -594l167 594h75l166 -594l188 594h84l-232 -696h-85l-159 572l-158 -572h-85z" />
<glyph unicode="x" horiz-adv-x="671" d="M11 0l277 363l-257 333h102l203 -267l202 267h102l-258 -325l277 -371h-101l-222 302l-222 -302h-103z" />
<glyph unicode="y" horiz-adv-x="671" d="M24 696h88l230 -602l237 602h81l-274 -696l-55 -138q-57 -144 -161 -144q-26 0 -78 12l-10 82q45 -11 70 -11h4q40 0 57.5 15.5t35.5 61.5l49 122z" />
<glyph unicode="z" horiz-adv-x="671" d="M28 0v72l477 556h-449v68h562v-55l-482 -569h504v-72h-612z" />
<glyph unicode="{" horiz-adv-x="447" d="M66 372v86q62 0 94 52t32 165v139q0 102 22 147t66 64t104 19v-74q-43 -1 -69.5 -14.5t-37.5 -43.5t-11 -158q0 -206 -39 -261t-91 -79q31 -14 54.5 -34.5t40.5 -48t26 -65t9 -152.5v-58q0 -78 9.5 -124t28.5 -58q20 -12 80 -15v-74q-60 0 -102.5 19.5t-66 62.5 t-23.5 145v138q0 86 -14 134t-41 68t-71 20z" />
<glyph unicode="|" horiz-adv-x="298" d="M114 -266v1226h66v-1226h-66z" />
<glyph unicode="}" horiz-adv-x="447" d="M64 -140q38 0 65 12.5t40 41.5q13 28 13 162q0 100 8 161t24.5 90t40 51t55.5 38q-40 18 -67.5 48t-41 67t-17 74.5t-3.5 110.5l1 58q0 104 -8 134t-36 45q-26 15 -74 18v73q62 0 103 -19t65 -61q24 -40 24 -146l-1 -138q0 -92 17 -142t45.5 -64t64.5 -16v-86 q-126 0 -127 -216v-80q0 -78 -3.5 -121.5t-22 -85t-55 -63t-88.5 -21.5q-10 0 -22 1v74z" />
<glyph unicode="~" horiz-adv-x="886" d="M90 406v72q106 78 184 78q41 0 70.5 -10t99.5 -42q112 -53 164 -53q74 -1 184 89v-77q-80 -52 -116 -63.5t-68 -11.5q-18 0 -43 5t-49 14t-82 36q-108 51 -158 51q-80 0 -186 -88z" />
<glyph horiz-adv-x="1024" />
<glyph unicode="&#xa1;" horiz-adv-x="463" d="M173 -72l34 511h47l36 -510v-203h-117v202zM178 582v105h107v-105h-107z" />
<glyph unicode="&#xa2;" horiz-adv-x="773" d="M90 340q0 190 89 277t213 87q21 0 80 -7l76 260l42 -12l-75 -261q124 -48 153 -178l-86 -13q-17 68 -86 127l-163 -562q41 -11 63 -11q72 0 127 48t72 133l86 -9q-22 -106 -99.5 -172t-183.5 -66q-34 0 -82 14l-80 -269l-43 13l78 268q-181 83 -181 333zM181 346 q0 -108 26.5 -168t83.5 -103l164 562l-56 3q-90 0 -154 -70t-64 -224z" />
<glyph unicode="&#xa3;" horiz-adv-x="773" d="M39 74q152 96 152 273q0 49 -15 102h-129v66h110q-40 132 -40 196q0 136 89.5 201.5t201.5 65.5q110 0 185 -59t95 -167l-87 -13q-14 79 -68 125.5t-128 46.5q-82 0 -137 -53.5t-55 -128.5q0 -76 43 -214h210v-66h-202q22 -50 22 -78q0 -129 -155 -289q112 29 149 29 q51 0 122 -17q118 -28 162 -28q52 0 121 31l28 -79q-84 -35 -144 -35q-46 0 -141 29l-91 27q-36 5 -67 5q-104 0 -197 -55z" />
<glyph unicode="&#xa4;" horiz-adv-x="773" d="M74 223l93 91q-54 80 -54 162q0 80 54 162l-93 90l54 56l93 -92q76 54 162 54t164 -54l92 92l55 -56l-93 -90q53 -80 53 -162t-53 -162l93 -91l-55 -56l-92 93q-80 -55 -164 -55q-82 0 -162 55l-93 -93zM190 476q0 -82 57 -138t136 -56q69 0 131 51.5t62 142.5 q0 79 -56.5 135.5t-136.5 56.5q-82 0 -137.5 -57t-55.5 -135z" />
<glyph unicode="&#xa5;" horiz-adv-x="773" d="M27 961h97l192 -341q18 -34 30 -60q14 -30 36 -80q19 44 34.5 76t36.5 70l181 335h106l-275 -483h244v-66h-280v-131h280v-60h-280v-221h-88v221h-282v60h282v131h-282v66h244z" />
<glyph unicode="&#xa6;" horiz-adv-x="361" d="M145 210h72v-503h-72v503zM145 476v502h72v-502h-72z" />
<glyph unicode="&#xa7;" horiz-adv-x="773" d="M72 420q0 152 152 200q-88 80 -87 161q0 88 67 142.5t164 54.5q229 0 264 -204l-94 -9q-29 146 -159 146q-56 0 -106 -32.5t-50 -91.5q0 -33 24 -68t55.5 -59t160.5 -102q99 -60 139.5 -92t65 -75t24.5 -93q0 -94 -64 -140q-20 -20 -90 -60q108 -80 108 -185 q0 -100 -77 -153t-175 -53q-238 0 -277 214l90 13q38 -157 186 -157q62 0 113 34.5t51 100.5q0 33 -26 68.5t-63.5 63.5t-173.5 112q-126 77 -174 134.5t-48 129.5zM149 434q0 -58 42 -101t137 -99q86 -51 155 -98q128 62 128 140q0 88 -196 210q-107 66 -145 100 q-121 -64 -121 -152z" />
<glyph unicode="&#xa8;" horiz-adv-x="463" d="M58 862v105h94v-105h-94zM312 862v105h93v-105h-93z" />
<glyph unicode="&#xa9;" horiz-adv-x="1024" d="M19 483q0 130 68.5 250.5t187.5 182.5t239 62q128 0 248 -67t183.5 -184.5t63.5 -243.5q0 -128 -66.5 -248.5t-184.5 -183.5t-244 -63t-244 64t-184.5 183t-66.5 248zM70 483q0 -178 126.5 -311t317.5 -133q187 0 315.5 128.5t128.5 315.5q0 186 -131 315t-313 129 q-186 0 -315 -129.5t-129 -314.5zM263 481q0 129 69.5 200.5t188.5 71.5q158 0 209 -131l-49 -12q-51 101 -163 101q-86 0 -141 -60.5t-55 -171.5q0 -110 52 -168.5t136 -58.5q137 0 180 127l52 -15q-54 -158 -227 -158q-112 0 -182 72t-70 203z" />
<glyph unicode="&#xaa;" horiz-adv-x="514" d="M49 638q0 108 151 128l100 15q34 5 79 18q0 73 -24 103t-99 30q-104 0 -126 -81l-60 15q32 112 187 112q94 0 140 -31.5t46 -115.5v-163l-1 -42q-2 -62 16 -107h-60q-12 28 -12 78q-103 -91 -188 -91q-60 0 -104.5 33t-44.5 99zM116 639q0 -36 28 -60.5t77 -24.5 q56 0 94.5 29t51.5 60t13 112q-63 -17 -140.5 -28t-100.5 -34t-23 -54z" />
<glyph unicode="&#xab;" horiz-adv-x="773" d="M111 341l205 293h63l-167 -292l165 -293h-61zM378 341l200 293h65l-169 -293l169 -292h-65z" />
<glyph unicode="&#xac;" horiz-adv-x="812" d="M94 585v80h623v-377h-81v297h-542z" />
<glyph unicode="&#xad;" horiz-adv-x="463" d="M61 299v89h341v-89h-341z" />
<glyph unicode="&#xae;" horiz-adv-x="1024" d="M19 483q0 130 68.5 250.5t187.5 182.5t239 62q128 0 248 -67t183.5 -184.5t63.5 -243.5q0 -128 -66.5 -248.5t-184.5 -183.5t-244 -63t-244 64t-184.5 183t-66.5 248zM70 483q0 -178 126.5 -311t317.5 -133q187 0 315.5 128.5t128.5 315.5q0 186 -131 315t-313 129 q-186 0 -315 -129.5t-129 -314.5zM307 216v518h172q145 0 182 -43t37 -90q0 -54 -42 -96q-42 -43 -125 -45l24 -18q40 -24 116 -143l51 -83h-68l-44 79q-45 81 -81 118.5t-98 37.5h-69v-235h-55zM362 493h125q150 0 150 101q0 38 -28.5 68.5t-128.5 30.5h-118v-200z" />
<glyph unicode="&#xaf;" horiz-adv-x="768" d="M-4 1063v53h776v-53h-776z" />
<glyph unicode="&#xb0;" horiz-adv-x="556" d="M104 807q0 70 50 120.5t121 50.5q70 0 121 -50.5t51 -120.5t-51.5 -121t-120.5 -51q-70 0 -120.5 50.5t-50.5 121.5zM144 808q0 -28 9 -51t29 -42.5t43 -29.5t50 -10q55 0 93.5 39t38.5 93q0 52 -38.5 92t-92.5 40q-55 0 -93.5 -38.5t-38.5 -92.5z" />
<glyph unicode="&#xb1;" horiz-adv-x="763" d="M70 0v80h623v-80h-623zM70 450v79h271v271h81v-271h271v-79h-271v-274h-81v274h-271z" />
<glyph unicode="&#xb2;" horiz-adv-x="463" d="M37 497q18 72 163 176q91 66 119 95t28 67q0 41 -28.5 66.5t-81.5 25.5q-88 0 -115 -76l-69 8q37 114 186 114q98 0 139.5 -35.5t41.5 -85.5q0 -48 -31 -89.5t-141 -120.5q-58 -42 -110 -96h285v-49h-386z" />
<glyph unicode="&#xb3;" horiz-adv-x="463" d="M43 599l67 6q28 -74 116 -74q52 0 88 29.5t36 77.5q0 55 -35.5 72.5t-105.5 21.5l7 37q42 0 75.5 22.5t33.5 62.5q0 78 -98 78q-77 0 -106 -67l-63 10q44 98 170 98q170 0 170 -110q0 -79 -101 -111q124 -28 124 -127q0 -68 -55.5 -104t-133.5 -36q-154 0 -189 114z" />
<glyph unicode="&#xb4;" horiz-adv-x="463" d="M178 810l74 156h114l-122 -156h-66z" />
<glyph unicode="&#xb5;" horiz-adv-x="801" d="M126 -276v963h86v-289q0 -184 23 -233.5t65.5 -77t95.5 -27.5q58 0 104 31t67 81.5t21 223.5v291h86v-687h-75v126q-66 -108 -112.5 -125.5t-85.5 -17.5q-38 0 -78 13.5t-111 108.5v-381h-86z" />
<glyph unicode="&#xb6;" horiz-adv-x="747" d="M18 692q0 108 68 188.5t236 80.5h412v-83h-97v-1154h-82v1154h-185v-1154h-78v708q-124 0 -199 71t-75 189z" />
<glyph unicode="&#xb7;" horiz-adv-x="386" d="M143 420v105h105v-105h-105z" />
<glyph unicode="&#xb8;" horiz-adv-x="463" d="M91 -280l5 47l47 -2q127 0 127 68q0 16 -11 33q-27 28 -90 28l26 88h55l-21 -72q57 0 89 -25t32 -59q0 -36 -40 -74t-140 -38q-43 0 -79 6z" />
<glyph unicode="&#xb9;" horiz-adv-x="463" d="M90 802v49q95 39 168 122h48v-476h-64v395q-86 -69 -152 -90z" />
<glyph unicode="&#xba;" horiz-adv-x="508" d="M48 737q0 129 63 185t142 56q91 0 148.5 -63t57.5 -175q0 -111 -58.5 -174.5t-146.5 -63.5q-80 0 -143 55t-63 180zM114 740q0 -92 39 -137t100 -45q139 0 139 185q0 98 -43 138.5t-96 40.5q-139 0 -139 -182z" />
<glyph unicode="&#xbb;" horiz-adv-x="773" d="M125 49l170 292l-170 293h64l201 -293l-201 -292h-64zM389 634h63l204 -293l-204 -292h-62l167 293z" />
<glyph unicode="&#xbc;" horiz-adv-x="1159" d="M90 802v49q95 39 168 122h48v-476h-64v395q-86 -69 -152 -90zM204 -39l723 1017h65l-723 -1017h-65zM728 83v61l265 311h58v-332h71v-40h-71v-104h-64v104h-259zM777 123h210v240z" />
<glyph unicode="&#xbd;" horiz-adv-x="1159" d="M90 802v49q95 39 168 122h48v-476h-64v395q-86 -69 -152 -90zM187 -39l723 1017h66l-723 -1017h-66zM732 -21q24 76 162 176q94 68 121 96.5t27 65.5q0 91 -110 91q-52 0 -76 -18t-39 -57l-68 6q35 116 185 116q98 0 139.5 -35.5t41.5 -85.5q0 -52 -36.5 -96t-135.5 -115 q-60 -44 -113 -96h288v-48h-386z" />
<glyph unicode="&#xbe;" horiz-adv-x="1159" d="M43 599l67 6q28 -74 116 -74q52 0 88 29.5t36 77.5q0 55 -35.5 72.5t-105.5 21.5l7 37q42 0 75.5 22.5t33.5 62.5q0 78 -98 78q-77 0 -106 -67l-63 10q44 98 170 98q170 0 170 -110q0 -79 -101 -111q124 -28 124 -127q0 -68 -55.5 -104t-133.5 -36q-154 0 -189 114z M204 -39l722 1017h66l-723 -1017h-65zM728 83v61l264 311h59v-332h71v-40h-71v-104h-64v104h-259zM777 123h210v240z" />
<glyph unicode="&#xbf;" horiz-adv-x="849" d="M124 -37q0 62 28 112.5t116 128.5q73 64 96.5 106t23.5 132h84q0 -14 1 -19q0 -92 -29.5 -143.5t-121.5 -133.5q-66 -58 -86 -94t-20 -81q0 -81 62 -138.5t147 -57.5q78 0 135.5 49.5t77.5 149.5l92 -10q-45 -255 -303 -255q-144 0 -223.5 75.5t-79.5 178.5zM375 582v105 h105v-105h-105z" />
<glyph unicode="&#xc0;" horiz-adv-x="895" d="M0 0l390 960h96l408 -960h-102l-125 306h-448l-121 -306h-98zM247 382h389l-199 483zM269 1200h130l84 -173h-66z" />
<glyph unicode="&#xc1;" horiz-adv-x="895" d="M0 0l390 960h96l408 -960h-102l-125 306h-448l-121 -306h-98zM247 382h389l-199 483zM388 1027l74 156h114l-122 -156h-66z" />
<glyph unicode="&#xc2;" horiz-adv-x="895" d="M0 0l390 960h96l408 -960h-102l-125 306h-448l-121 -306h-98zM247 382h389l-199 483zM252 1027l120 156h114l125 -156h-93l-86 112l-85 -112h-95z" />
<glyph unicode="&#xc3;" horiz-adv-x="895" d="M0 0l390 960h96l408 -960h-102l-125 306h-448l-121 -306h-98zM222 1027q4 57 38.5 89t82.5 32q37 0 107 -35q42 -22 71 -22q52 0 64 59h56q0 -52 -33.5 -86.5t-81.5 -34.5q-36 0 -105 36q-47 27 -74 27q-58 0 -68 -65h-57zM247 382h389l-199 483z" />
<glyph unicode="&#xc4;" horiz-adv-x="895" d="M0 0l390 960h96l408 -960h-102l-125 306h-448l-121 -306h-98zM247 382h389l-199 483zM258 1062v105h94v-105h-94zM512 1062v105h93v-105h-93z" />
<glyph unicode="&#xc5;" horiz-adv-x="895" d="M0 0l390 960h96l408 -960h-102l-125 306h-448l-121 -306h-98zM247 382h389l-199 483zM332 1116q0 50 33.5 77.5t71.5 27.5q40 0 73 -26t33 -79q0 -50 -34 -78t-72 -28t-71.5 28t-33.5 78zM367 1114q0 -26 19 -49t51 -23q30 0 50 22q21 20 21 50q0 27 -18.5 51t-52.5 24 q-33 0 -51.5 -24t-18.5 -51z" />
<glyph unicode="&#xc6;" horiz-adv-x="1390" d="M28 0l462 961h789v-83h-501v-340h465v-83h-465v-372h519v-83h-617v287h-412l-136 -287h-104zM308 370h372v508h-126z" />
<glyph unicode="&#xc7;" horiz-adv-x="969" d="M74 479q0 219 120 358.5t321 139.5q136 0 232.5 -67.5t149.5 -213.5l-87 -24q-80 230 -289 230q-162 0 -257.5 -120t-95.5 -304q0 -207 96 -313.5t243 -106.5q241 0 320 266l83 -22q-96 -318 -398 -318q-102 0 -181 32t-135 95.5t-89 161.5t-33 206zM365 -262l5 47l47 -2 q127 0 127 68q0 16 -11 33q-27 28 -90 28l26 88h55l-21 -72q57 0 89 -25t32 -59q0 -36 -40 -74t-140 -38q-43 0 -79 6z" />
<glyph unicode="&#xc8;" horiz-adv-x="819" d="M121 0v960h614v-80h-523v-346h484v-78h-484v-376h543v-80h-634zM279 1200h130l84 -173h-66z" />
<glyph unicode="&#xc9;" horiz-adv-x="819" d="M121 0v960h614v-80h-523v-346h484v-78h-484v-376h543v-80h-634zM378 1050l74 156h114l-122 -156h-66z" />
<glyph unicode="&#xca;" horiz-adv-x="819" d="M121 0v960h614v-80h-523v-346h484v-78h-484v-376h543v-80h-634zM247 1050l120 156h114l125 -156h-93l-86 112l-85 -112h-95z" />
<glyph unicode="&#xcb;" horiz-adv-x="819" d="M121 0v960h614v-80h-523v-346h484v-78h-484v-376h543v-80h-634zM258 1042v105h94v-105h-94zM512 1042v105h93v-105h-93z" />
<glyph unicode="&#xcc;" horiz-adv-x="373" d="M34 1200h130l84 -173h-66zM144 0v960h90v-960h-90z" />
<glyph unicode="&#xcd;" horiz-adv-x="373" d="M138 1050l74 156h114l-122 -156h-66zM144 0v960h90v-960h-90z" />
<glyph unicode="&#xce;" horiz-adv-x="373" d="M12 1050l120 156h114l125 -156h-93l-86 112l-85 -112h-95zM144 0v960h90v-960h-90z" />
<glyph unicode="&#xcf;" horiz-adv-x="373" d="M20 1062v105h94v-105h-94zM144 0v960h90v-960h-90zM274 1062v105h93v-105h-93z" />
<glyph unicode="&#xd0;" horiz-adv-x="1004" d="M15 453v55h109v453h327q156 0 241.5 -37.5t153 -144.5t67.5 -293q0 -486 -447 -486h-342v453h-109zM222 83h229q215 0 287.5 113.5t72.5 290.5q0 182 -71.5 286.5t-291.5 104.5h-226v-370h274v-55h-274v-370z" />
<glyph unicode="&#xd1;" horiz-adv-x="969" d="M116 0v960h90l560 -828l-6 828h89v-960h-96l-554 818l7 -818h-90zM282 1027q4 57 38.5 89t82.5 32q37 0 107 -35q42 -22 71 -22q52 0 64 59h56q0 -52 -33.5 -86.5t-81.5 -34.5q-36 0 -105 36q-47 27 -74 27q-58 0 -68 -65h-57z" />
<glyph unicode="&#xd2;" horiz-adv-x="1043" d="M78 480q0 224 119 360.5t327 136.5q140 0 239 -61t154 -172.5t55 -263.5q0 -225 -119 -360.5t-329 -135.5q-138 0 -236 60t-154 171t-56 265zM172 480q0 -186 95 -304t257 -118q108 0 185 51.5t122 147t45 223.5q0 189 -94 305.5t-258 116.5q-166 0 -259 -117t-93 -305z M344 1210h130l84 -173h-66z" />
<glyph unicode="&#xd3;" horiz-adv-x="1043" d="M78 480q0 224 119 360.5t327 136.5q140 0 239 -61t154 -172.5t55 -263.5q0 -225 -119 -360.5t-329 -135.5q-138 0 -236 60t-154 171t-56 265zM172 480q0 -186 95 -304t257 -118q108 0 185 51.5t122 147t45 223.5q0 189 -94 305.5t-258 116.5q-166 0 -259 -117t-93 -305z M473 1060l74 156h114l-122 -156h-66z" />
<glyph unicode="&#xd4;" horiz-adv-x="1043" d="M78 480q0 224 119 360.5t327 136.5q140 0 239 -61t154 -172.5t55 -263.5q0 -225 -119 -360.5t-329 -135.5q-138 0 -236 60t-154 171t-56 265zM172 480q0 -186 95 -304t257 -118q108 0 185 51.5t122 147t45 223.5q0 189 -94 305.5t-258 116.5q-166 0 -259 -117t-93 -305z M347 1060l120 156h114l125 -156h-93l-86 112l-85 -112h-95z" />
<glyph unicode="&#xd5;" horiz-adv-x="1043" d="M78 480q0 224 119 360.5t327 136.5q140 0 239 -61t154 -172.5t55 -263.5q0 -225 -119 -360.5t-329 -135.5q-138 0 -236 60t-154 171t-56 265zM172 480q0 -186 95 -304t257 -118q108 0 185 51.5t122 147t45 223.5q0 189 -94 305.5t-258 116.5q-166 0 -259 -117t-93 -305z M317 1047q4 57 38.5 89t82.5 32q37 0 107 -35q42 -22 71 -22q52 0 64 59h56q0 -52 -33.5 -86.5t-81.5 -34.5q-36 0 -105 36q-47 27 -74 27q-58 0 -68 -65h-57z" />
<glyph unicode="&#xd6;" horiz-adv-x="1043" d="M78 480q0 224 119 360.5t327 136.5q140 0 239 -61t154 -172.5t55 -263.5q0 -225 -119 -360.5t-329 -135.5q-138 0 -236 60t-154 171t-56 265zM172 480q0 -186 95 -304t257 -118q108 0 185 51.5t122 147t45 223.5q0 189 -94 305.5t-258 116.5q-166 0 -259 -117t-93 -305z M358 1082v105h94v-105h-94zM612 1082v105h93v-105h-93z" />
<glyph unicode="&#xd7;" horiz-adv-x="812" d="M134 261l214 213l-214 213l59 59l214 -213l211 212l57 -58l-211 -212l213 -213l-59 -58l-212 213l-215 -214z" />
<glyph unicode="&#xd8;" horiz-adv-x="1081" d="M81 1l116 131q-73 111 -94.5 183t-21.5 163q0 225 124.5 362.5t336.5 137.5q158 0 309 -114l113 127l41 -35l-117 -131q66 -98 88.5 -170.5t22.5 -174.5q0 -221 -123.5 -359t-331.5 -138q-164 0 -309 111l-114 -127zM183 480q0 -154 74 -281l536 599q-131 101 -250 101 q-170 0 -265 -113.5t-95 -305.5zM294 159q110 -97 246 -97q180 0 268.5 122t88.5 292q0 148 -70 279z" />
<glyph unicode="&#xd9;" horiz-adv-x="969" d="M114 352v608h93v-614q1 -288 277 -288q274 0 274 286v616h92v-607q0 -369 -364 -369q-372 0 -372 368zM304 1200h130l84 -173h-66z" />
<glyph unicode="&#xda;" horiz-adv-x="969" d="M114 352v608h93v-614q1 -288 277 -288q274 0 274 286v616h92v-607q0 -369 -364 -369q-372 0 -372 368zM408 1050l74 156h114l-122 -156h-66z" />
<glyph unicode="&#xdb;" horiz-adv-x="969" d="M114 352v608h93v-614q1 -288 277 -288q274 0 274 286v616h92v-607q0 -369 -364 -369q-372 0 -372 368zM297 1050l120 156h114l125 -156h-93l-86 112l-85 -112h-95z" />
<glyph unicode="&#xdc;" horiz-adv-x="969" d="M114 352v608h93v-614q1 -288 277 -288q274 0 274 286v616h92v-607q0 -369 -364 -369q-372 0 -372 368zM303 1062v105h94v-105h-94zM557 1062v105h93v-105h-93z" />
<glyph unicode="&#xdd;" horiz-adv-x="819" d="M11 960h107l294 -460l300 460h102l-362 -546v-414h-91v414zM358 1050l74 156h114l-122 -156h-66z" />
<glyph unicode="&#xde;" horiz-adv-x="927" d="M124 0v961h98v-202h261q128 0 204.5 -24t119.5 -93.5t43 -154.5q0 -285 -356 -285h-272v-202h-98zM222 286h274q252 0 252 197q0 58 -27 105.5t-71 67t-157 19.5h-271v-389z" />
<glyph unicode="&#xdf;" horiz-adv-x="849" d="M121 0v661q0 317 273 317q88 0 161 -45t73 -133q0 -60 -54 -154q-50 -87 -49 -122q0 -53 105 -123q88 -58 123.5 -100t35.5 -106q0 -92 -67 -152t-164 -60q-150 0 -223 138l75 35q58 -106 146 -106q51 0 96.5 36t45.5 99q0 40 -19.5 66.5t-86.5 72.5q-110 76 -134 113 t-24 69q0 44 51 131q59 101 59 151q0 54 -45 88.5t-108 34.5q-182 0 -182 -255v-656h-88z" />
<glyph unicode="&#xe0;" d="M61 178q0 44 13.5 78.5t41.5 61t76 45t171 35.5q139 18 195 40q0 60 -3.5 92t-22.5 60t-58.5 43t-97.5 15q-180 0 -217 -154l-83 12q38 206 300 206q82 0 137.5 -19t83 -53t35.5 -85t8 -139l-2 -196q-1 -78 7 -120t35 -100h-89q-19 49 -25 106q-113 -122 -285 -122 q-62 0 -111.5 22t-79.5 66q-29 44 -29 106zM147 184q0 -57 42.5 -91.5t108.5 -34.5q39 0 77 10t74.5 30t61 49t36 74t11.5 108v45q-70 -26 -220 -52q-80 -14 -117 -29t-55.5 -43t-18.5 -66zM214 960h130l84 -173h-66z" />
<glyph unicode="&#xe1;" d="M61 178q0 44 13.5 78.5t41.5 61t76 45t171 35.5q139 18 195 40q0 60 -3.5 92t-22.5 60t-58.5 43t-97.5 15q-180 0 -217 -154l-83 12q38 206 300 206q82 0 137.5 -19t83 -53t35.5 -85t8 -139l-2 -196q-1 -78 7 -120t35 -100h-89q-19 49 -25 106q-113 -122 -285 -122 q-62 0 -111.5 22t-79.5 66q-29 44 -29 106zM147 184q0 -57 42.5 -91.5t108.5 -34.5q39 0 77 10t74.5 30t61 49t36 74t11.5 108v45q-70 -26 -220 -52q-80 -14 -117 -29t-55.5 -43t-18.5 -66zM323 810l74 156h114l-122 -156h-66z" />
<glyph unicode="&#xe2;" d="M61 178q0 44 13.5 78.5t41.5 61t76 45t171 35.5q139 18 195 40q0 60 -3.5 92t-22.5 60t-58.5 43t-97.5 15q-180 0 -217 -154l-83 12q38 206 300 206q82 0 137.5 -19t83 -53t35.5 -85t8 -139l-2 -196q-1 -78 7 -120t35 -100h-89q-19 49 -25 106q-113 -122 -285 -122 q-62 0 -111.5 22t-79.5 66q-29 44 -29 106zM147 184q0 -57 42.5 -91.5t108.5 -34.5q39 0 77 10t74.5 30t61 49t36 74t11.5 108v45q-70 -26 -220 -52q-80 -14 -117 -29t-55.5 -43t-18.5 -66zM182 810l120 156h114l125 -156h-93l-86 112l-85 -112h-95z" />
<glyph unicode="&#xe3;" d="M61 178q0 44 13.5 78.5t41.5 61t76 45t171 35.5q139 18 195 40q0 60 -3.5 92t-22.5 60t-58.5 43t-97.5 15q-180 0 -217 -154l-83 12q38 206 300 206q82 0 137.5 -19t83 -53t35.5 -85t8 -139l-2 -196q-1 -78 7 -120t35 -100h-89q-19 49 -25 106q-113 -122 -285 -122 q-62 0 -111.5 22t-79.5 66q-29 44 -29 106zM147 184q0 -57 42.5 -91.5t108.5 -34.5q39 0 77 10t74.5 30t61 49t36 74t11.5 108v45q-70 -26 -220 -52q-80 -14 -117 -29t-55.5 -43t-18.5 -66zM152 827q4 57 38.5 89t82.5 32q37 0 107 -35q42 -22 71 -22q52 0 64 59h56 q0 -52 -33.5 -86.5t-81.5 -34.5q-36 0 -105 36q-47 27 -74 27q-58 0 -68 -65h-57z" />
<glyph unicode="&#xe4;" d="M61 178q0 44 13.5 78.5t41.5 61t76 45t171 35.5q139 18 195 40q0 60 -3.5 92t-22.5 60t-58.5 43t-97.5 15q-180 0 -217 -154l-83 12q38 206 300 206q82 0 137.5 -19t83 -53t35.5 -85t8 -139l-2 -196q-1 -78 7 -120t35 -100h-89q-19 49 -25 106q-113 -122 -285 -122 q-62 0 -111.5 22t-79.5 66q-29 44 -29 106zM147 184q0 -57 42.5 -91.5t108.5 -34.5q39 0 77 10t74.5 30t61 49t36 74t11.5 108v45q-70 -26 -220 -52q-80 -14 -117 -29t-55.5 -43t-18.5 -66zM188 832v105h94v-105h-94zM442 832v105h93v-105h-93z" />
<glyph unicode="&#xe5;" d="M61 178q0 44 13.5 78.5t41.5 61t76 45t171 35.5q139 18 195 40q0 60 -3.5 92t-22.5 60t-58.5 43t-97.5 15q-180 0 -217 -154l-83 12q38 206 300 206q82 0 137.5 -19t83 -53t35.5 -85t8 -139l-2 -196q-1 -78 7 -120t35 -100h-89q-19 49 -25 106q-113 -122 -285 -122 q-62 0 -111.5 22t-79.5 66q-29 44 -29 106zM147 184q0 -57 42.5 -91.5t108.5 -34.5q39 0 77 10t74.5 30t61 49t36 74t11.5 108v45q-70 -26 -220 -52q-80 -14 -117 -29t-55.5 -43t-18.5 -66zM262 886q0 50 33.5 77.5t71.5 27.5q40 0 73 -26t33 -79q0 -50 -34 -78t-72 -28 t-71.5 28t-33.5 78zM297 884q0 -26 19 -49t51 -23q30 0 50 22q21 20 21 50q0 27 -18.5 51t-52.5 24q-33 0 -51.5 -24t-18.5 -51z" />
<glyph unicode="&#xe6;" horiz-adv-x="1236" d="M63 173q0 86 65 138.5t239 75.5q110 14 186 37q0 33 1 40q0 92 -39.5 132t-137.5 40q-180 0 -205 -137l-85 11q48 193 291 193q115 0 164.5 -27.5t83.5 -79.5q92 107 233 107q138 0 224 -100.5t80 -248.5l-1 -25h-521q0 -86 15.5 -141.5t73.5 -96.5t134 -41 q152 0 197 151l93 -12q-72 -205 -295 -205q-160 0 -266 144q-140 -144 -300 -144q-90 0 -160 46t-70 143zM159 177q0 -64 46 -97.5t111 -33.5q78 0 143 40t80.5 90.5t15.5 194.5q-68 -32 -238 -59q-158 -25 -158 -135zM639 396h433q-16 240 -213 240q-111 0 -165.5 -72 t-54.5 -168z" />
<glyph unicode="&#xe7;" d="M60 348q0 76 17.5 137t42 99t57.5 65t79 45t120 18q228 0 298 -213l-86 -13q-46 156 -214 156q-54 0 -96.5 -19.5t-72 -58.5t-44.5 -90.5t-15 -116.5q0 -138 60 -222.5t170 -84.5q159 0 227 188l81 -12q-40 -118 -114 -180t-197 -62q-94 0 -162 39t-109 123 q-42 84 -42 202zM231 -252l5 47l47 -2q127 0 127 68q0 16 -11 33q-27 28 -90 28l26 88h55l-21 -72q57 0 89 -25t32 -59q0 -36 -40 -74t-140 -38q-43 0 -79 6z" />
<glyph unicode="&#xe8;" d="M62 348q0 168 84 266t232 98q302 0 304 -374h-535q2 -135 63.5 -211t171.5 -76q152 0 212 169l80 -14q-41 -119 -114.5 -170.5t-183.5 -51.5q-148 0 -231 98t-83 266zM150 405h444q-19 241 -218 241q-90 0 -152 -62.5t-74 -178.5zM204 960h130l84 -173h-66z" />
<glyph unicode="&#xe9;" d="M62 348q0 168 84 266t232 98q302 0 304 -374h-535q2 -135 63.5 -211t171.5 -76q152 0 212 169l80 -14q-41 -119 -114.5 -170.5t-183.5 -51.5q-148 0 -231 98t-83 266zM150 405h444q-19 241 -218 241q-90 0 -152 -62.5t-74 -178.5zM328 810l74 156h114l-122 -156h-66z" />
<glyph unicode="&#xea;" d="M62 348q0 168 84 266t232 98q302 0 304 -374h-535q2 -135 63.5 -211t171.5 -76q152 0 212 169l80 -14q-41 -119 -114.5 -170.5t-183.5 -51.5q-148 0 -231 98t-83 266zM150 405h444q-19 241 -218 241q-90 0 -152 -62.5t-74 -178.5zM202 810l120 156h114l125 -156h-93 l-86 112l-85 -112h-95z" />
<glyph unicode="&#xeb;" d="M62 348q0 168 84 266t232 98q302 0 304 -374h-535q2 -135 63.5 -211t171.5 -76q152 0 212 169l80 -14q-41 -119 -114.5 -170.5t-183.5 -51.5q-148 0 -231 98t-83 266zM150 405h444q-19 241 -218 241q-90 0 -152 -62.5t-74 -178.5zM198 812v105h94v-105h-94zM452 812v105 h93v-105h-93z" />
<glyph unicode="&#xec;" horiz-adv-x="386" d="M44 960h130l84 -173h-66zM151 0v687h89v-687h-89z" />
<glyph unicode="&#xed;" horiz-adv-x="386" d="M151 0v687h89v-687h-89zM153 810l74 156h114l-122 -156h-66z" />
<glyph unicode="&#xee;" horiz-adv-x="386" d="M12 810l120 156h114l125 -156h-93l-86 112l-85 -112h-95zM151 0v687h89v-687h-89z" />
<glyph unicode="&#xef;" horiz-adv-x="386" d="M18 812v105h94v-105h-94zM151 0v687h89v-687h-89zM272 812v105h93v-105h-93z" />
<glyph unicode="&#xf0;" horiz-adv-x="773" d="M67 334q0 159 76.5 256t212.5 97q66 0 182 -63q-59 128 -129 205l-183 -84l-16 38l170 78q-65 60 -118 100h89q41 -32 87 -73l140 67l17 -38l-122 -58q227 -261 227 -522q0 -158 -85 -256t-232 -98q-149 0 -232.5 94.5t-83.5 256.5zM157 331q0 -128 58.5 -205t166.5 -77 q106 0 165.5 82t59.5 211q0 112 -55.5 198.5t-173.5 86.5q-113 0 -167 -85.5t-54 -210.5z" />
<glyph unicode="&#xf1;" d="M103 0v696h82v-103q94 119 224 119q237 0 237 -258v-454h-83v432q0 112 -43.5 160t-117.5 48q-40 0 -75 -13.5t-64.5 -40t-47 -61.5t-24 -77t-6.5 -146v-302h-82zM162 827q4 57 38.5 89t82.5 32q37 0 107 -35q42 -22 71 -22q52 0 64 59h56q0 -52 -33.5 -86.5t-81.5 -34.5 q-36 0 -105 36q-47 27 -74 27q-58 0 -68 -65h-57z" />
<glyph unicode="&#xf2;" d="M59 344q0 83 18.5 148t55 112.5t92.5 77.5q57 30 145 30q142 0 226 -93t84 -273q0 -172 -81 -267t-230 -95q-72 0 -128.5 25t-98 75t-62.5 115t-21 145zM145 350q0 -133 60.5 -216.5t167.5 -83.5q50 0 89.5 18.5t69.5 56.5t47 94t17 127q0 94 -28 161t-77 102t-119 35 q-108 0 -167.5 -80t-59.5 -214zM194 960h130l84 -173h-66z" />
<glyph unicode="&#xf3;" d="M59 344q0 83 18.5 148t55 112.5t92.5 77.5q57 30 145 30q142 0 226 -93t84 -273q0 -172 -81 -267t-230 -95q-72 0 -128.5 25t-98 75t-62.5 115t-21 145zM145 350q0 -133 60.5 -216.5t167.5 -83.5q50 0 89.5 18.5t69.5 56.5t47 94t17 127q0 94 -28 161t-77 102t-119 35 q-108 0 -167.5 -80t-59.5 -214zM313 810l74 156h114l-122 -156h-66z" />
<glyph unicode="&#xf4;" d="M59 344q0 83 18.5 148t55 112.5t92.5 77.5q57 30 145 30q142 0 226 -93t84 -273q0 -172 -81 -267t-230 -95q-72 0 -128.5 25t-98 75t-62.5 115t-21 145zM145 350q0 -133 60.5 -216.5t167.5 -83.5q50 0 89.5 18.5t69.5 56.5t47 94t17 127q0 94 -28 161t-77 102t-119 35 q-108 0 -167.5 -80t-59.5 -214zM182 800l120 156h114l125 -156h-93l-86 112l-85 -112h-95z" />
<glyph unicode="&#xf5;" d="M59 344q0 83 18.5 148t55 112.5t92.5 77.5q57 30 145 30q142 0 226 -93t84 -273q0 -172 -81 -267t-230 -95q-72 0 -128.5 25t-98 75t-62.5 115t-21 145zM145 350q0 -133 60.5 -216.5t167.5 -83.5q50 0 89.5 18.5t69.5 56.5t47 94t17 127q0 94 -28 161t-77 102t-119 35 q-108 0 -167.5 -80t-59.5 -214zM147 827q4 57 38.5 89t82.5 32q37 0 107 -35q42 -22 71 -22q52 0 64 59h56q0 -52 -33.5 -86.5t-81.5 -34.5q-36 0 -105 36q-47 27 -74 27q-58 0 -68 -65h-57z" />
<glyph unicode="&#xf6;" d="M59 344q0 83 18.5 148t55 112.5t92.5 77.5q57 30 145 30q142 0 226 -93t84 -273q0 -172 -81 -267t-230 -95q-72 0 -128.5 25t-98 75t-62.5 115t-21 145zM145 350q0 -133 60.5 -216.5t167.5 -83.5q50 0 89.5 18.5t69.5 56.5t47 94t17 127q0 94 -28 161t-77 102t-119 35 q-108 0 -167.5 -80t-59.5 -214zM188 822v105h94v-105h-94zM442 822v105h93v-105h-93z" />
<glyph unicode="&#xf7;" horiz-adv-x="763" d="M70 434v80h623v-80h-623zM328 216v106h106v-106h-106zM328 626v105h106v-105h-106z" />
<glyph unicode="&#xf8;" horiz-adv-x="849" d="M108 333q0 172 83 271t234 99q94 0 207 -64l66 85l37 -27l-69 -90q83 -110 83 -264q0 -170 -83 -264.5t-238 -94.5q-105 0 -195 60l-71 -91l-36 28l71 93q-89 94 -89 259zM200 343q0 -109 50 -200l333 432q-81 61 -154 61q-114 0 -171.5 -84t-57.5 -209zM282 108 q69 -58 142 -58q120 0 177 86t57 208q0 97 -44 195z" />
<glyph unicode="&#xf9;" d="M96 242v454h82v-432q0 -114 44 -161.5t118 -47.5q49 0 91 20.5t74.5 62.5t41.5 98t9 158v302h82v-696h-82v103q-92 -119 -224 -119q-236 0 -236 258zM194 960h130l84 -173h-66z" />
<glyph unicode="&#xfa;" d="M96 242v454h82v-432q0 -114 44 -161.5t118 -47.5q49 0 91 20.5t74.5 62.5t41.5 98t9 158v302h82v-696h-82v103q-92 -119 -224 -119q-236 0 -236 258zM288 810l74 156h114l-122 -156h-66z" />
<glyph unicode="&#xfb;" d="M96 242v454h82v-432q0 -114 44 -161.5t118 -47.5q49 0 91 20.5t74.5 62.5t41.5 98t9 158v302h82v-696h-82v103q-92 -119 -224 -119q-236 0 -236 258zM182 810l120 156h114l125 -156h-93l-86 112l-85 -112h-95z" />
<glyph unicode="&#xfc;" d="M96 242v454h82v-432q0 -114 44 -161.5t118 -47.5q49 0 91 20.5t74.5 62.5t41.5 98t9 158v302h82v-696h-82v103q-92 -119 -224 -119q-236 0 -236 258zM168 822v105h94v-105h-94zM422 822v105h93v-105h-93z" />
<glyph unicode="&#xfd;" horiz-adv-x="671" d="M24 696h88l230 -602l237 602h81l-274 -696l-55 -138q-57 -144 -161 -144q-26 0 -78 12l-10 82q49 -12 74 -11q40 0 57.5 15.5t35.5 61.5l49 122zM288 810l74 156h114l-122 -156h-66z" />
<glyph unicode="&#xfe;" horiz-adv-x="773" d="M109 -276v1237h88v-376q68 118 215 118q146 0 217 -105.5t71 -248.5q0 -142 -73 -253.5t-223 -111.5q-137 0 -207 116v-376h-88zM185 339q0 -128 54.5 -208.5t155.5 -80.5q103 0 158.5 83t55.5 217q0 116 -50.5 203.5t-158.5 87.5q-102 0 -158.5 -89.5t-56.5 -212.5z" />
<glyph unicode="&#xff;" horiz-adv-x="671" d="M24 696h88l230 -602l237 602h81l-274 -696l-55 -138q-57 -144 -161 -144q-26 0 -78 12l-10 82q49 -12 74 -11q40 0 57.5 15.5t35.5 61.5l49 122zM158 822v105h94v-105h-94zM412 822v105h93v-105h-93z" />
<glyph unicode="&#x131;" horiz-adv-x="386" d="M151 0v687h89v-687h-89z" />
<glyph unicode="&#x152;" horiz-adv-x="1390" d="M105 482q0 233 98.5 364.5t285.5 131.5q101 0 179 -53t110 -141v177h530v-83h-441v-338h406v-83h-406v-374h462v-83h-551v164q-82 -182 -289 -181q-195 0 -289.5 141.5t-94.5 357.5zM206 472q0 -186 73.5 -301.5t209.5 -115.5q139 0 210 118.5t71 315.5q0 183 -73 299.5 t-208 116.5q-142 0 -212.5 -119t-70.5 -314z" />
<glyph unicode="&#x153;" horiz-adv-x="1312" d="M73 335q0 114 36.5 196.5t108.5 127t178 44.5q182 0 267 -153q96 153 265 153q163 0 239 -109t76 -266h-532q0 -124 61.5 -201t170.5 -77q147 0 197 149l89 -13q-64 -202 -288 -202q-187 0 -276 148q-106 -148 -270 -148q-170 0 -246 103.5t-76 247.5zM164 345 q0 -132 60 -213.5t168 -81.5q114 0 171.5 88.5t57.5 207.5q0 129 -60.5 210t-168.5 81q-114 0 -171 -86.5t-57 -205.5zM715 394h435q-22 243 -215 243q-98 0 -159 -69.5t-61 -173.5z" />
<glyph unicode="&#x160;" horiz-adv-x="819" d="M61 289l91 8q11 -118 79.5 -178.5t179.5 -60.5q82 0 139.5 25t88.5 74t31 103q0 145 -252 191q-170 31 -244 95q-74 62 -74 174q0 118 86 187.5t220 69.5q149 0 231.5 -66.5t90.5 -203.5l-89 -4q-16 199 -226 199q-97 0 -161 -46q-64 -48 -64 -128q0 -138 230 -183 q170 -34 254 -96.5t84 -182.5q0 -64 -22 -114.5t-68.5 -89t-109 -58.5t-138.5 -20q-328 0 -357 305zM227 1211h95l87 -114l84 114h93l-125 -156h-114z" />
<glyph unicode="&#x161;" horiz-adv-x="671" d="M50 188l83 14q18 -80 71.5 -116t132.5 -36q54 0 96.5 18t64.5 48t22 70q0 37 -25 63.5t-67 41.5t-118 31q-238 50 -238 194q0 90 70 143t176 53q211 0 258 -184l-80 -12q-22 74 -60 101t-116 27q-49 0 -88.5 -14.5t-58.5 -39t-19 -58.5t17.5 -58t68 -43t128.5 -37 q148 -34 193 -82.5t45 -114.5t-32.5 -113t-94 -73.5t-145.5 -26.5q-54 0 -98 10t-80 31.5t-63 58t-43 104.5zM132 953h95l87 -114l84 114h93l-125 -156h-114z" />
<glyph unicode="&#x178;" horiz-adv-x="819" d="M11 960h107l294 -460l300 460h102l-362 -546v-414h-91v414zM213 1062v105h94v-105h-94zM467 1062v105h93v-105h-93z" />
<glyph unicode="&#x17d;" horiz-adv-x="819" d="M34 0v84l620 798h-566v78h678v-78l-626 -804h640v-78h-746zM260 1211h95l87 -114l84 114h93l-125 -156h-114z" />
<glyph unicode="&#x17e;" horiz-adv-x="671" d="M28 0v72l477 556h-449v68h562v-55l-482 -569h504v-72h-612zM156 966h95l87 -114l84 114h93l-125 -156h-114z" />
<glyph unicode="&#x192;" horiz-adv-x="773" d="M52 -279l16 73q65 -13 89 -13q85 0 105 118l123 727h-136l10 61h137l19 104q14 76 27.5 107.5t50.5 56t97 24.5q67 0 126 -21l-16 -72q-58 13 -92 13q-44 0 -68 -22.5t-38 -99.5l-17 -90h139l-10 -61h-139l-132 -756q-16 -94 -53.5 -128.5t-106.5 -34.5q-56 0 -131 14z " />
<glyph unicode="&#x2c6;" horiz-adv-x="463" d="M52 810l120 156h114l125 -156h-93l-86 112l-85 -112h-95z" />
<glyph unicode="&#x2c7;" horiz-adv-x="463" d="M62 966h95l87 -114l84 114h93l-125 -156h-114z" />
<glyph unicode="&#x2da;" horiz-adv-x="463" d="M127 886q0 50 33.5 77.5t71.5 27.5q40 0 73 -26t33 -79q0 -50 -34 -78t-72 -28t-71.5 28t-33.5 78zM162 884q0 -26 19 -49t51 -23q30 0 50 22q21 20 21 50q0 27 -18.5 51t-52.5 24q-33 0 -51.5 -24t-18.5 -51z" />
<glyph unicode="&#x2dc;" horiz-adv-x="463" d="M22 827q4 57 38.5 89t82.5 32q37 0 107 -35q42 -22 71 -22q52 0 64 59h56q0 -52 -33.5 -86.5t-81.5 -34.5q-36 0 -105 36q-47 27 -74 27q-58 0 -68 -65h-57z" />
<glyph unicode="&#xe01;" horiz-adv-x="819" d="M62 674q44 68 140.5 112t190.5 44q96 0 166 -29t105.5 -78.5t35.5 -120.5v-602h-76v598q0 76 -67.5 119t-165.5 43q-120 0 -211 -66q81 -22 164 -78q-48 -21 -81 -46.5t-42.5 -50t-9.5 -58.5v-461h-76v494q1 84 97 118q-52 34 -170 62z" />
<glyph unicode="&#xe02;" horiz-adv-x="770" d="M40 606q0 56 19.5 100t75 84t155.5 40q84 0 137.5 -46t53.5 -124q0 -36 -36 -111t-36 -99v-374h166v743h76v-819h-420v76h103v387q0 28 33 98q34 71 34 97q-1 89 -101 102q-86 0 -130 -29q43 0 75.5 -15.5t47.5 -45t15 -69.5q0 -34 -14.5 -62.5t-46 -49t-75.5 -20.5 q-42 0 -69 17t-45 50q-18 32 -18 70zM110 608q0 -66 64 -66q66 0 65 66q1 64 -65 64q-64 0 -64 -64z" />
<glyph unicode="&#xe03;" horiz-adv-x="819" d="M44 592q0 101 63 169.5t105 68.5q22 0 36 -11l79 -61l78 59q17 13 29 13q15 0 68.5 -60t53.5 -78q0 -8 -86 -112q-16 -18 -16 -52v-452h168v743h76v-819h-422v76h102v462q0 56 64 116q28 26 28 34q0 12 -17 31t-27 19q-20 0 -96 -68q-86 84 -122 84q-28 0 -60 -36 t-38 -69q28 29 84 29q53 0 88 -37.5t35 -93.5t-36.5 -91.5t-98.5 -35.5q-68 0 -103 49t-35 123zM122 553q0 -65 64 -65q66 0 66 65q0 63 -66 63q-64 0 -64 -63z" />
<glyph unicode="&#xe04;" horiz-adv-x="854" d="M116 0v494q0 144 88 240t224 96q84 0 152.5 -33t111.5 -99q43 -68 43 -160v-538h-75v532q0 66 -29.5 116t-81 81t-117.5 31q-64 0 -116 -28t-91 -90t-39 -150v-324l44 135l61 209q38 131 146 131q55 0 94 -39.5t39 -95.5q0 -58 -40 -97t-98 -39q-76 0 -98 50l-10 -33 l-130 -389h-78zM366 510q0 -68 70 -68q62 0 62 62q0 68 -70 68q-62 0 -62 -62z" />
<glyph unicode="&#xe05;" horiz-adv-x="854" d="M121 0v635q0 48 21 90.5t57.5 68t83.5 25.5q72 0 104 -27q17 -12 53 -44q24 22 58 44q34 27 102 27q42 0 72.5 -20.5t49.5 -58.5q18 -38 18 -88v-652h-76v592q0 154 -86 154q-32 0 -52 -15l-86 -65l-86 65q-22 17 -60 17q-96 0 -97 -156v-422l41 129l62 176 q46 133 138 133q136 0 136 -135q0 -39 -16.5 -68t-45 -45t-67.5 -16q-57 0 -103 56l-16 -54l-127 -346h-78zM375 477q-1 -65 65 -65q64 0 64 65q0 63 -64 63q-66 0 -65 -63z" />
<glyph unicode="&#xe06;" horiz-adv-x="997" d="M60 596q0 98 64 166t102 68q26 0 40 -11l77 -61l78 59q17 13 29 13q16 0 69 -61t53 -77q0 -14 -38 -58l-50 -58q-14 -16 -14 -48v-186q89 -17 180.5 -74.5t159.5 -157.5l-10 74v635h76v-819h-76q0 14 -26.5 51t-65.5 80t-80.5 71t-88.5 46t-69 20v-186q0 -40 -32 -66 t-78 -26t-85.5 21t-67 63t-27.5 98q0 86 60 130t154 44v192q0 51 64 115q30 30 30 35q0 12 -17 31t-27 19q-22 0 -99 -68q-87 84 -121 84q-28 0 -61 -37t-37 -68q27 29 88 29q32 0 57 -13t43.5 -43t18.5 -75q0 -56 -38.5 -91.5t-96.5 -35.5q-138 0 -138 176zM138 553 q0 -65 64 -65q66 0 66 65q0 63 -66 63q-64 0 -64 -63zM255 168q0 -41 30.5 -73.5t72.5 -32.5q36 0 36 50v158q-140 0 -139 -102z" />
<glyph unicode="&#xe07;" horiz-adv-x="641" d="M12 440l56 56l336 -344q6 -6 22 -29l18 -25l10 -16l-8 55v379q0 24 4 36t19 40q-33 -35 -86 -35q-32 0 -59.5 15t-47.5 45.5t-20 70.5q0 42 18.5 74t49 50t69.5 18q50 0 89.5 -39t39.5 -87v-704h-76zM326 692q0 -64 63 -64q61 0 61 62q0 64 -63 64q-61 0 -61 -62z" />
<glyph unicode="&#xe08;" horiz-adv-x="782" d="M51 424v74q0 100 37.5 174t101.5 115t152 41q139 0 230.5 -79t91.5 -209v-540h-72l-119 344q-17 46 -23 58q-26 -46 -96 -46q-38 0 -66.5 17t-45.5 47q-16 30 -16 68q0 32 14 59t43 46t67 19q106 0 140 -104l88 -268l20 -74v370q0 54 -26 100t-85 83t-137 37 q-107 0 -165 -72q-58 -70 -58 -196v-64h-76zM297 486q-1 -64 61 -64t62 64q0 62 -62 61q-62 1 -61 -61z" />
<glyph unicode="&#xe09;" horiz-adv-x="829" d="M58 420v62q0 101 43.5 179.5t115 123.5t164.5 45q68 0 125.5 -22t103.5 -65t69 -98t23 -121v-274q88 -22 88 -125q0 -54 -36 -92.5t-90 -38.5q-36 0 -65.5 13t-48.5 37q-18 22 -18 52q0 24 4 33q-50 -40 -172 -129h-75v358q-93 20 -93 128q0 37 18.5 66.5t48 47.5 t67.5 18q56 0 94.5 -37t38.5 -93q-1 -100 -99 -130v-274q148 112 192 142t70 30v266q0 100 -71.5 166t-175.5 66q-63 0 -115 -29t-90.5 -92t-38.5 -151v-62h-77zM266 488q0 -64 64 -64t63 64q1 64 -63 63q-64 1 -64 -63zM592 131q0 -67 68 -67q64 0 63 63q1 67 -67 67 q-64 0 -64 -63z" />
<glyph unicode="&#xe0a;" horiz-adv-x="782" d="M22 606q0 92 72 155t177 63q113 0 227 -80l144 140l53 -50l-131 -132l96 -69v-633h-404v76h95v448q0 38 5 56.5t28.5 46t64.5 61.5q-94 66 -180 66q-98 0 -133 -46q18 8 34 9q31 0 58.5 -13.5t45.5 -44.5t18 -74q0 -54 -43 -92.5t-97 -38.5q-61 0 -95.5 38t-34.5 114z M93 594q0 -66 63 -66q66 0 66 66q0 64 -66 64q-63 0 -63 -64zM428 76h156v522l-74 54q-34 -32 -53.5 -54t-24 -33.5t-4.5 -44.5v-444z" />
<glyph unicode="&#xe0b;" horiz-adv-x="782" d="M35 604q0 78 45.5 152t109.5 74q22 0 36 -11l77 -65l78 63q17 13 29 13t100 -80l135 134l53 -50l-130 -132l96 -86v-616h-410v76h100v462q0 52 54 105l55 55q-49 48 -59 48q-12 0 -99 -76q-87 84 -121 84q-29 0 -53 -32t-29 -66q39 22 66 22q56 0 90.5 -37.5t34.5 -93.5 q0 -52 -36.5 -89.5t-86.5 -37.5q-134 0 -135 184zM100 553q0 -65 64 -65q66 0 66 65q0 63 -66 63q-64 0 -64 -63zM432 76h156v510l-76 66q-10 -9 -35.5 -34.5t-35 -45.5t-9.5 -44v-452z" />
<glyph unicode="&#xe0c;" horiz-adv-x="1222" d="M64 674q43 68 140.5 112t191.5 44q100 0 170 -31t103 -80t33 -117v-266q80 -10 174 -72t152 -156v711h76v-819h-76q-4 30 -69 104t-141 116t-116 44v-182q0 -92 -90 -92q-41 0 -73.5 22.5t-55 65t-22.5 91.5q0 75 45 122q44 47 120 51v256q0 76 -67.5 119t-165.5 43 q-121 0 -211 -66q86 -22 164 -78q-139 -60 -139 -155v-227q23 22 59 22q41 0 71.5 -17t47.5 -46.5t17 -69.5q0 -38 -18 -67.5t-50 -47.5t-72 -18q-58 0 -94.5 37t-36.5 96v354q1 83 103 135q-52 34 -170 62zM205 119q0 -61 61 -61q64 0 64 67q0 61 -62 61q-64 0 -63 -67z M532 170q0 -40 22 -74t56 -34q20 0 21 50v158q-99 -2 -99 -100z" />
<glyph unicode="&#xe0d;" horiz-adv-x="1245" d="M62 674q44 68 140.5 112t190.5 44q96 0 166 -29t105.5 -78.5t35.5 -120.5v-526h350v743h76v-819h-502v598q0 76 -67.5 119t-165.5 43q-120 0 -211 -66q81 -22 164 -78q-78 -34 -111 -68t-33 -87v-231q28 26 64 26q57 0 95.5 -38t38.5 -95q0 -39 -18 -68t-49 -47t-71 -18 q-39 0 -68.5 17t-46 46.5t-16.5 69.5v354q1 99 103 135q-52 34 -170 62zM196 119q0 -61 63 -61q69 0 69 67q0 61 -62 61q-70 0 -70 -67zM596 -188q0 55 40 90.5t96 35.5t93 -40t37 -93q0 -57 -49 -89q65 4 135 73t82 145l78 -18q-29 -121 -117.5 -191.5t-210.5 -70.5 q-55 0 -97 21t-64.5 55t-22.5 82zM664 -194q0 -68 67 -68q65 0 65 66q0 68 -67 67q-65 1 -65 -65z" />
<glyph unicode="&#xe0e;" horiz-adv-x="901" d="M30 123q0 56 35 92t91 36q34 0 65 -16v257q1 82 95 120q-52 34 -172 62q44 68 141 112t192 44t165 -28.5t105 -78.5t35 -121v-897l-198 -201l-178 119q-28 17 -40 55v-30q0 -55 -40 -98.5t-98 -43.5q-43 0 -75.5 19t-51.5 51.5t-19 75.5q0 56 40 97.5t97 41.5 q67 -1 97 -33q-8 10 -12.5 21t-4.5 21v106h69v-170l206 -134l132 134v862q0 76 -67 119t-166 43q-120 0 -211 -66q84 -22 164 -78q-48 -22 -80 -47t-40.5 -49t-8.5 -59v-336q0 -54 -37.5 -94.5t-91.5 -40.5q-40 0 -71 18t-49 47.5t-18 67.5zM100 127q0 -71 67 -71 q63 0 63 63q0 71 -70 71q-60 0 -60 -63zM158 -346q0 -74 70 -74q17 0 32.5 8.5t27 25t11.5 36.5q0 74 -76 74q-26 0 -45.5 -21t-19.5 -49z" />
<glyph unicode="&#xe0f;" horiz-adv-x="901" d="M30 123q0 56 35 92t91 36q34 0 65 -16v257q1 84 95 120q-52 34 -172 62q44 68 141 112t192 44t165 -28.5t105 -78.5t35 -121v-946l-147 -152l-93 92l-90 -92q-27 28 -77 84q-9 14 -15 33q-8 -50 -43 -82.5t-77 -32.5q-47 0 -82.5 19.5t-55.5 51t-20 75.5q0 56 40 97.5 t97 41.5q59 -1 97 -35q-10 12 -13.5 26t-3.5 18v106h69v-201l84 -103l90 89l89 -89l75 80v916q0 76 -67 119t-166 43q-120 0 -211 -66q84 -22 164 -78q-48 -22 -80 -47t-40.5 -49t-8.5 -59v-336q0 -54 -37.5 -94.5t-91.5 -40.5q-40 0 -71 18t-49 47.5t-18 67.5zM100 127 q0 -71 67 -71q63 0 63 63q0 71 -70 71q-60 0 -60 -63zM158 -346q0 -74 76 -74q66 0 65 70q0 74 -76 74q-18 0 -33 -10t-23.5 -25t-8.5 -35z" />
<glyph unicode="&#xe10;" horiz-adv-x="782" d="M-22 -375q0 34 15 63.5t46 49.5t73 20q52 0 86 -28q-7 14 -11.5 25t-4.5 18v145h72v-240l82 -104l88 88l88 -88l74 76v30q4 22 14 36q-31 -34 -86 -34q-125 0 -125 130q0 56 39.5 93t95.5 37q58 0 95 -37t37 -99v-185l-142 -143l-90 90l-88 -90l-66 74q-17 18 -24 50 q-12 -122 -138 -122q-59 0 -94.5 40t-35.5 105zM47 -377q0 -69 65 -69q68 0 68 63q0 69 -70 69q-64 0 -63 -63zM96 576l2 20q9 92 83.5 158.5t201.5 66.5q77 0 179 -27q44 -12 58 -12q6 2 15 86l71 -10q-14 -116 -26 -137t-45 -21q-20 0 -122 25q-101 25 -137 25 q-160 0 -206 -117q57 31 164 31q126 0 225 -33t99 -95l-84 -536h-72l-90 258q-2 16 -6 35q0 6 2 41q-36 -70 -116 -70q-31 0 -57.5 15t-47.5 48t-21 77q0 55 38 93.5t94 38.5q96 0 128 -96l84 -258l16 -88h6l6 136l44 294q0 33 -95 51.5t-190 18.5q-105 0 -201 -18zM236 400 q0 -64 63 -64t63 64t-63 63q-26 0 -44.5 -18.5t-18.5 -44.5zM456 -194q0 -62 69 -62q63 0 63 68q0 62 -66 61q-66 1 -66 -67z" />
<glyph unicode="&#xe11;" horiz-adv-x="1032" d="M42 592q0 104 64 171t104 67q22 0 36 -11l79 -61l78 59q17 13 29 13q9 0 34.5 -24t56.5 -62t31 -52q0 -8 -86 -112q-16 -18 -16 -52v-315l58 164l159 442h51q190 -1 191 -207v-612h-76v616q-1 128 -103 128h-12l-274 -744h-70v538q0 56 64 116q28 26 28 34q0 10 -16 30 t-28 20q-20 0 -96 -68q-86 84 -122 84q-28 0 -60 -36t-38 -69q28 29 84 29q53 0 88 -37.5t35 -93.5q0 -39 -17.5 -67.5t-47 -44t-70.5 -15.5q-68 0 -103 49t-35 123zM120 553q0 -65 64 -65q66 0 66 65q0 63 -66 63q-64 0 -64 -63z" />
<glyph unicode="&#xe12;" horiz-adv-x="1257" d="M121 0v635q0 48 21 90.5t57.5 68t83.5 25.5q72 0 104 -27q17 -12 53 -44q24 22 58 44q34 27 102 27q42 0 72.5 -20.5t49.5 -58.5q18 -38 18 -88v-316q61 0 164 -64t159 -153v700h75v-819h-75q-8 32 -70.5 103.5t-139.5 115t-113 47.5v-184q0 -92 -93 -92q-69 0 -110 50 t-41 132q0 50 20 86.5t58 59.5q38 22 90 24v250q0 154 -86 154q-32 0 -52 -15l-86 -65l-86 65q-22 17 -60 17q-96 0 -97 -156v-494l171 205q10 12 29 27.5t27 19.5q-34 0 -63 15t-49.5 44t-20.5 64q0 36 15 66t45.5 48.5t72.5 18.5q40 0 70 -17t47.5 -45t17.5 -66 q0 -52 -45 -106l-315 -372h-78zM358 484q0 -74 70 -74q64 0 64 67q0 70 -70 70q-64 1 -64 -63zM570 172q0 -110 75 -110q19 0 19 50v158q-94 -2 -94 -98z" />
<glyph unicode="&#xe13;" horiz-adv-x="1245" d="M62 674q44 68 140.5 112t190.5 44q96 0 166 -29t105.5 -78.5t35.5 -120.5v-504q78 80 177 138.5t165 58.5v524h76v-535q94 -38 94 -140q0 -48 -19 -82.5t-53 -53t-81 -18.5q-149 0 -149 152q0 6 16 48q-14 -12 -36 -30l-92 -68q-66 -50 -104 -92h-70v598q0 76 -67.5 119 t-165.5 43q-120 0 -211 -66q81 -22 164 -78q-48 -21 -80 -46.5t-43.5 -50.5t-11.5 -58v-227q23 20 57 20q39 0 68.5 -17t46.5 -46t17 -68t-18 -68t-49 -47t-71 -18q-56 0 -90.5 36.5t-34.5 96.5v371q1 84 97 118q-52 34 -170 62zM200 121q0 -63 62 -63q66 0 66 67 q0 63 -64 63t-64 -67zM973 146q0 -88 88 -88q86 0 86 84q0 88 -88 88q-86 0 -86 -84z" />
<glyph unicode="&#xe14;" horiz-adv-x="854" d="M116 0v494q0 142 88.5 239t223.5 97q90 0 159 -38.5t108.5 -103t39.5 -150.5v-538h-75v532q0 66 -32 116.5t-83.5 80t-118.5 29.5q-68 0 -118.5 -35t-82 -95t-31.5 -134v-380l178 224q10 13 42 38l12 9q-127 0 -127 123q0 37 18.5 67.5t48.5 49t66 18.5q39 0 69.5 -17.5 t48.5 -46.5t18 -65q0 -52 -46 -108l-334 -406h-72zM366 510q0 -68 70 -68q62 0 62 62q0 68 -70 68q-62 0 -62 -62z" />
<glyph unicode="&#xe15;" horiz-adv-x="854" d="M116 0v635q0 73 47 128.5t115 55.5q72 0 104 -27q18 -12 54 -44q24 22 57 44q34 27 103 27q36 0 65 -16.5t51.5 -54.5t22.5 -96v-652h-76v592q1 154 -85 154q-32 0 -52 -15l-86 -65l-86 65q-22 17 -61 17q-97 0 -97 -156v-494l172 205l28 28q10 7 27 19q-54 0 -93.5 37 t-39.5 86q0 58 37 95.5t97 37.5q58 0 96 -36t38 -92q0 -52 -44 -106l-316 -372h-78zM354 484q0 -74 70 -74q64 0 63 67q1 70 -69 70q-64 1 -64 -63z" />
<glyph unicode="&#xe16;" horiz-adv-x="819" d="M62 674q44 68 140.5 112t190.5 44q96 0 166 -29t105.5 -78.5t35.5 -120.5v-602h-76v598q0 76 -67.5 119t-165.5 43q-120 0 -211 -66q81 -22 164 -78q-48 -21 -80 -46.5t-44.5 -51.5t-12.5 -59v-231q15 22 63 22q36 0 65 -17t46 -45.5t17 -64.5q0 -39 -18 -68t-49 -47 t-71 -18q-58 0 -91.5 36.5t-33.5 94.5v373q1 84 97 118q-52 34 -170 62zM198 116q0 -60 63 -60q69 0 69 65q0 61 -67 61q-65 0 -65 -66z" />
<glyph unicode="&#xe17;" horiz-adv-x="878" d="M39 694q0 34 15.5 64t47.5 51t74 21q58 0 94 -38q37 -40 37 -98v-494l21 82l30 97l158 440h54q190 -1 190 -207v-612h-76v616q0 128 -102 128h-12l-271 -744h-69v559v11q2 8 2 14q-24 -22 -60 -23q-36 0 -64 14.5t-48.5 45.5t-20.5 73zM110 692q0 -61 63 -61q69 -1 69 67 q0 62 -64 62q-68 0 -68 -68z" />
<glyph unicode="&#xe18;" horiz-adv-x="735" d="M62 522l2 18q13 120 115.5 205t228.5 85q176 0 264 -138l-60 -40q-70 106 -215 106q-84 0 -154.5 -51t-101.5 -127q10 4 22.5 8t26.5 4h248q154 0 154 -142v-450h-476v76h97v446h-151zM289 76h227v366q0 43 -20 61.5t-50 18.5h-157v-446z" />
<glyph unicode="&#xe19;" horiz-adv-x="878" d="M39 694q0 34 15.5 64t47.5 51t74 21q39 0 67.5 -17t45 -47t16.5 -72v-586q78 76 151.5 118t137.5 57.5t90 15.5v520h76v-535q94 -38 94 -140q0 -154 -154 -154q-44 0 -77.5 20t-52.5 53t-19 79q0 36 22 64q-20 0 -86.5 -42t-111.5 -84.5t-72 -79.5h-75v576 q-18 -14 -54 -15q-36 0 -64.5 14t-49.5 44.5t-21 74.5zM110 692q0 -61 62 -61q70 -1 70 67q0 62 -62 62q-70 0 -70 -68zM614 146q0 -88 88 -88q86 0 86 84q0 88 -88 88q-86 0 -86 -84z" />
<glyph unicode="&#xe1a;" horiz-adv-x="913" d="M41 694q0 34 15.5 64t48 51t75.5 21q39 0 67.5 -17t45 -47t16.5 -72v-618h410v743h75v-819h-654v76h94v504q-20 -16 -64 -17q-56 0 -92.5 37.5t-36.5 93.5zM112 692q0 -61 62 -61q70 -1 70 67q0 62 -62 62q-70 0 -70 -68z" />
<glyph unicode="&#xe1b;" horiz-adv-x="913" d="M41 694q0 34 15.5 64t48 51t75.5 21q39 0 67.5 -17t45 -47t16.5 -72v-618h410v1182h75v-1258h-654v76h94v504q-20 -16 -64 -17q-56 0 -92.5 37.5t-36.5 93.5zM112 692q0 -61 62 -61q70 -1 70 67q0 62 -62 62q-70 0 -70 -68z" />
<glyph unicode="&#xe1c;" horiz-adv-x="829" d="M123 0v694q0 40 17.5 70.5t46.5 48t67 17.5q57 0 97 -39t40 -97q0 -40 -17 -69.5t-45.5 -46.5t-66.5 -17q-38 1 -64 23v-463l187 229h65l185 -223v692h75v-819h-69l-223 272l-224 -272h-71zM188 698q0 -68 66 -67q66 0 66 61q0 68 -70 68q-62 0 -62 -62z" />
<glyph unicode="&#xe1d;" horiz-adv-x="829" d="M123 0v694q0 40 17.5 70.5t46.5 48t67 17.5q57 0 97 -39t40 -97q0 -40 -17 -69.5t-45.5 -46.5t-66.5 -17q-38 1 -64 23v-463l187 229h65l185 -223v1131h75v-1258h-69l-223 272l-224 -272h-71zM188 698q0 -68 66 -67q66 0 66 61q0 68 -70 68q-62 0 -62 -62z" />
<glyph unicode="&#xe1e;" horiz-adv-x="948" d="M39 694q0 34 15.5 64t47.5 51t74 21q59 0 93 -38t34 -98v-474l41 134l150 465h71l163 -503l26 -103v606h76v-819h-76l-201 628l-25 107l-22 -107l-203 -628h-75v580q-22 -18 -62 -19q-54 0 -90.5 39.5t-36.5 93.5zM110 692q0 -61 62 -61q70 -1 70 67q0 62 -61 62 q-71 0 -71 -68z" />
<glyph unicode="&#xe1f;" horiz-adv-x="948" d="M39 694q0 34 15.5 64t47.5 51t74 21q59 0 93 -38t34 -98v-474l41 134l150 465h71l163 -503l26 -103v1045h76v-1258h-76l-201 628l-25 107l-22 -107l-203 -628h-75v580q-22 -18 -62 -19q-54 0 -90.5 39.5t-36.5 93.5zM110 692q0 -61 62 -61q70 -1 70 67q0 62 -61 62 q-71 0 -71 -68z" />
<glyph unicode="&#xe20;" horiz-adv-x="901" d="M30 123q0 56 35 92t91 36q34 0 65 -16v257q1 82 95 120q-52 34 -172 62q44 68 141 112t192 44t165 -28.5t105 -78.5t35 -121v-602h-76v598q0 76 -67 119t-166 43q-120 0 -211 -66q84 -22 164 -78q-48 -22 -80 -47t-40.5 -49t-8.5 -59v-336q0 -54 -37.5 -94.5t-91.5 -40.5 q-40 0 -71 18t-49 47.5t-18 67.5zM100 127q0 -71 67 -71q63 0 63 63q0 71 -70 71q-60 0 -60 -63z" />
<glyph unicode="&#xe21;" horiz-adv-x="889" d="M66 694q0 58 40 97t97 39q58 0 94.5 -38t36.5 -98v-385q68 0 184 -63.5t176 -143.5v717h76v-819h-76q0 10 -33 44t-82 73t-121 77t-126 42v-154q0 -92 -90 -92q-46 0 -82.5 22.5t-59 59t-22.5 82.5q0 76 49 119t131 43v262q-10 -16 -58 -17q-61 0 -97.5 38.5t-36.5 94.5z M137 692q0 -61 63 -61q68 -1 68 67q0 62 -62 62q-68 0 -69 -68zM154 154q0 -34 26 -63t60 -29q20 0 20 50v128q-106 0 -106 -86z" />
<glyph unicode="&#xe22;" horiz-adv-x="819" d="M70 604q0 40 11.5 75t38 71t66.5 58t88 22q66 0 106 -38t40 -98q0 -39 -17 -68.5t-46 -47t-66 -17.5q-123 0 -123 115q0 6 2 24q-26 -26 -26 -91q0 -66 43 -112.5t106 -46.5h119v-71h-107q-77 0 -77 -90v-213h394v743h76v-819h-546v278q0 106 57 130q-139 46 -139 196z M217 698q1 -68 69 -67q62 0 62 61q0 68 -68 68q-63 0 -63 -62z" />
<glyph unicode="&#xe23;" horiz-adv-x="616" d="M76 540v42q0 105 74.5 176.5t181.5 71.5q74 0 130 -32.5t89 -86t33 -123.5v-31h-72v17q0 54 -24 96t-64 66t-92 24q-166 0 -186 -160q38 12 56 12h224v-500q0 -50 -38 -86t-89 -36q-139 0 -139 139q0 38 17 67.5t46 46.5t66 17q34 0 61 -18v298h-274zM230 125 q0 -61 61 -61q63 0 63 63q0 61 -61 61q-63 0 -63 -63z" />
<glyph unicode="&#xe24;" horiz-adv-x="819" d="M62 674q44 68 140.5 112t190.5 44q96 0 166 -29t105.5 -78.5t35.5 -120.5v-1100h-76v1096q0 76 -67.5 119t-165.5 43q-120 0 -211 -66q81 -22 164 -78q-48 -21 -80 -46.5t-43.5 -50.5t-11.5 -58v-219q18 16 51 16q36 0 67 -15t51 -46t20 -74q0 -39 -18 -68t-49 -47 t-71 -18q-34 0 -61 13.5t-45.5 43t-18.5 74.5v373q1 84 97 118q-52 34 -170 62zM196 119q0 -61 65 -61q67 0 67 67q0 61 -62 61q-70 0 -70 -67z" />
<glyph unicode="&#xe25;" horiz-adv-x="829" d="M78 438v56q0 100 42 175t115 118t171 43q63 0 116.5 -21t98.5 -63.5t67 -94t22 -113.5v-538h-75q0 95 -91 290q-90 194 -148 252q-37 -34 -100 -130q-62 -96 -90 -184q32 28 64 28q58 0 98 -38t40 -95t-40 -95t-98 -38q-62 0 -100.5 44t-38.5 108q0 62 14.5 120t44 116 t89.5 136q61 79 119 131q68 -51 144 -194t116 -295l4 2l-27 221v153q0 95 -67.5 160.5t-163.5 65.5q-72 0 -127.5 -34.5t-89 -94t-33.5 -135.5v-56h-76zM205 119q-1 -61 63 -61q68 0 68 67q0 61 -66 61t-65 -67z" />
<glyph unicode="&#xe26;" horiz-adv-x="901" d="M30 123q0 56 35 92t91 36q34 0 65 -16v257q1 82 95 120q-52 34 -172 62q44 68 141 112t192 44t165 -28.5t105 -78.5t35 -121v-1100h-76v1096q0 76 -67 119t-166 43q-120 0 -211 -66q84 -22 164 -78q-48 -22 -80 -47t-40.5 -49t-8.5 -59v-336q0 -54 -37.5 -94.5 t-91.5 -40.5q-40 0 -71 18t-49 47.5t-18 67.5zM100 127q0 -71 67 -71q63 0 63 63q0 71 -70 71q-60 0 -60 -63z" />
<glyph unicode="&#xe27;" horiz-adv-x="710" d="M56 432v125q0 114 80 193.5t196 79.5q106 0 183 -72t77 -176v-470q0 -34 -17 -61t-46 -44t-64 -17q-137 0 -137 139q0 38 17 67.5t45 46.5t64 17q38 0 62 -18v332q0 52 -24 92t-65 64t-95 24q-86 0 -143.5 -59t-57.5 -144v-119h-75zM398 123q0 -59 58 -59q64 0 64 65 q0 59 -59 59q-63 0 -63 -65z" />
<glyph unicode="&#xe28;" horiz-adv-x="854" d="M116 0v494q0 64 17 117.5t56 105t99.5 82.5t139.5 31q102 0 168 -46q30 41 74 146l68 -32q0 -4 -26 -55q-40 -77 -63 -105q42 -29 64 -85.5t22 -114.5v-538h-75v532q0 106 -54 148q-8 -6 -34 -41q-4 -6 -40 -41q38 -35 38 -87q0 -58 -40 -95t-99 -37q-65 0 -95 43 l-12 -33l-130 -389h-78zM188 174l38 129l65 209q41 131 145 131q19 0 41 -8q34 34 76 90q-35 33 -127 33q-68 0 -120.5 -35.5t-85 -97t-32.5 -137.5v-314zM368 510q0 -68 68 -68q62 0 62 64q0 68 -68 68q-62 0 -62 -64z" />
<glyph unicode="&#xe29;" horiz-adv-x="973" d="M41 694q0 34 15.5 64t48 51t75.5 21q39 0 67.5 -17t45 -47t16.5 -72v-618h410v315q-57 -27 -147 -27q-76 0 -128.5 42t-52.5 110q0 52 35.5 89.5t87.5 37.5q38 0 66.5 -16t44.5 -44.5t16 -66.5q1 -54 -59 -94q30 0 42 1.5t43.5 12t51.5 33.5v350h75v-317q26 13 75 62 t59 69l53 -47q-105 -124 -187 -164v-422h-654v76h94v502q-20 -16 -60 -17q-59 0 -96 38.5t-37 94.5zM112 692q0 -61 60 -61q72 -1 72 67q0 62 -60 62q-72 0 -72 -68zM459 518q0 -62 61 -62q58 0 58 58q0 62 -60 62t-59 -58z" />
<glyph unicode="&#xe2a;" horiz-adv-x="829" d="M78 438v56q0 100 42 175t115 118t171 43q72 0 120 -23q16 0 64 125l70 -31q-38 -84 -70 -133q66 -44 93 -104t27 -126v-538h-75q0 94 -89.5 287.5t-146.5 249.5q-89 -96 -140 -183.5t-63 -140.5q30 39 78 39q40 0 70 -17t47 -45.5t17 -66.5q0 -57 -40 -95t-98 -38 q-42 0 -73.5 20.5t-48.5 55t-17 80.5q0 92 43 196q44 104 186 262l124 140q0 14 -80 14q-72 0 -127.5 -34.5t-89 -94t-33.5 -135.5v-56h-76zM207 119q1 -66 65 -66q68 0 68 72q0 63 -62 63q-72 0 -71 -69zM444 588q38 -30 99 -142t67 -147l33 -82v311q0 76 -34.5 125 t-61.5 57z" />
<glyph unicode="&#xe2b;" horiz-adv-x="878" d="M39 694q0 34 15.5 64t47.5 51t74 21q127 0 127 -140v-561l21 29l307 410q-103 50 -103 132q0 54 38 92q40 38 94 38q58 0 95 -36t37 -94q0 -60 -67 -124l35 -21v-555h-76v522l-385 -522h-67v578q-18 -16 -60 -17q-59 0 -96 38.5t-37 94.5zM110 692q0 -61 62 -61 q70 -1 70 67q0 62 -62 62q-70 0 -70 -68zM600 700q0 -44 70 -84q52 46 51 84q1 60 -61 60q-16 0 -29.5 -8.5t-22 -22t-8.5 -29.5z" />
<glyph unicode="&#xe2c;" horiz-adv-x="948" d="M39 694q0 34 15.5 63.5t47 50t74.5 20.5q127 0 127 -134v-485l41 145l150 465h71l193 -596v586q0 4 3 17t17 28q-28 -28 -78 -28q-39 0 -69.5 17.5t-48.5 47.5q-17 29 -17 69q0 58 37.5 97t95.5 39q31 0 59 -13t47.5 -37t23.5 -57q0 -5 2 -21q2 5 6 23q2 4 6 23l47 47 l53 -53l-112 -111v-897h-76l-226 712l-22 -84l-203 -628h-69v580q-24 -18 -64 -19q-36 0 -65 16.5t-47 46.5q-19 30 -19 70zM106 690q0 -62 60 -62q70 0 70 70q0 62 -61 62q-69 0 -69 -70zM637 956q0 -62 61 -61q66 -1 66 65q0 62 -60 62q-67 0 -67 -66z" />
<glyph unicode="&#xe2d;" horiz-adv-x="807" d="M53 438v56q0 100 42.5 175t115.5 118t170 43q128 0 217 -84q90 -86 90 -208v-538h-485v482q0 58 36.5 96t94.5 38q40 0 70.5 -18t48.5 -48t18 -68q0 -56 -37 -95t-92 -39q-36 0 -64 18v-290h334v456q0 96 -68 161t-165 65q-64 0 -118 -29t-93 -91q-39 -60 -39 -144v-56 h-76zM272 484q0 -66 68 -66q60 0 60 61q0 66 -68 66q-60 1 -60 -61z" />
<glyph unicode="&#xe2e;" horiz-adv-x="782" d="M104 688q0 62 74.5 102t162.5 40q138 0 218 -66q9 8 29 28l74 84l54 -49q0 -2 -17 -20.5t-54 -54.5l-33 -33q26 -29 39 -70t13 -111v-538h-541v362q0 59 36 97.5t95 38.5q58 0 97.5 -39t39.5 -97t-34 -95t-88 -37q-37 0 -71 18v-172h390v510q0 54 -29 86 q-37 -37 -94 -68.5t-141 -31.5q-85 0 -152.5 29t-67.5 87zM180 688q0 -14 20 -25t56 -16.5t66 -5.5q64 0 109 22t77 52q-58 45 -162 45q-56 0 -111 -21t-55 -51zM190 364q0 -66 68 -65q60 -1 60 61q0 66 -68 66q-60 0 -60 -62z" />
<glyph unicode="&#xe2f;" horiz-adv-x="735" d="M53 688q0 58 37 100q36 42 94 42q40 0 69 -17t46 -45q17 -30 17 -68q0 -35 -16 -62t-44 -44q-26 -18 -60 -18q38 -18 72 -19q214 0 272 262h76v-819h-76v555l28 151l-7 2q-18 -80 -93 -148q-76 -69 -174 -69q-66 0 -117 24.5t-87.5 73.5t-36.5 99zM123 696q-1 -64 63 -63 q64 -1 64 63t-64 64t-63 -64z" />
<glyph unicode="&#xe30;" horiz-adv-x="735" d="M82 166q0 34 15 62t47 48.5t75 20.5q38 0 66 -16.5t44.5 -45.5t16.5 -67q0 -88 -78 -108q110 0 204 62t146 175l66 -43q-58 -116 -159 -185t-215 -69q-66 0 -120 24t-81 59t-27 83zM82 688q0 38 18 66.5t49 46.5t70 18q56 0 91.5 -36.5t35.5 -92.5q0 -88 -78 -108 q81 0 150.5 32t118.5 83t81 122l66 -43q-58 -116 -159 -185t-215 -69q-66 0 -120 24t-81 59.5t-27 82.5zM152 166q0 -68 68 -68q62 0 62 62q0 68 -68 68q-62 0 -62 -62zM152 688q0 -68 68 -68q62 0 62 62q0 68 -68 68q-62 0 -62 -62z" />
<glyph unicode="&#xe31;" horiz-adv-x="0" d="M-466 1097q0 34 15 62.5t44 48t69 19.5q34 0 62 -17t44 -43.5t16 -58.5q0 -64 -34 -86q34 0 139 55t197 181l57 -50q-87 -111 -202 -182.5t-218 -71.5q-88 0 -138.5 39.5t-50.5 103.5zM-400 1102q0 -62 62 -62q58 0 57 58q1 62 -61 61q-58 0 -58 -57z" />
<glyph unicode="&#xe32;" horiz-adv-x="710" d="M62 565v15q0 103 80 176q80 74 186 74q114 0 189 -72t75 -184v-574h-76v559q0 62 -24.5 106.5t-66 68.5t-97.5 24q-76 0 -134.5 -55t-58.5 -129v-9h-73z" />
<glyph unicode="&#xe33;" horiz-adv-x="710" d="M-297 1174q0 44 20.5 78t55.5 55t78 21q44 0 78.5 -21t55 -55t20.5 -78q0 -39 -17.5 -73t-53.5 -57.5t-83 -23.5q-44 0 -78.5 21t-55 55t-20.5 78zM-227 1174q0 -22 9.5 -40t29.5 -31t45 -13q22 0 40.5 10t31 29t12.5 45q0 24 -11.5 43t-30 30t-42.5 11q-22 0 -40.5 -10 t-31 -29t-12.5 -45zM62 565v15q0 103 80 176q80 74 186 74q114 0 189 -72t75 -184v-574h-76v559q0 62 -24.5 106.5t-66 68.5t-97.5 24q-76 0 -134.5 -55t-58.5 -129v-9h-73z" />
<glyph unicode="&#xe34;" horiz-adv-x="0" d="M-774 1026q0 31 19.5 73.5t47.5 73.5t65.5 51.5t84 31t102.5 10.5q78 0 138.5 -26t104.5 -65t68.5 -88.5t24.5 -134.5q-122 45 -230.5 64.5t-228.5 19.5q-112 0 -196 -10zM-704 1077q18 8 70 19q50 10 126 10q130 0 211 -30t121 -60q-30 84 -111.5 131t-189.5 47 q-149 0 -227 -117z" />
<glyph unicode="&#xe35;" horiz-adv-x="0" d="M-774 1026q0 42 36 104.5t107 99t183 36.5q51 0 103 -17t97.5 -48t75.5 -77q-18 36 -18 86v191h71v-449q-122 45 -230.5 64.5t-228.5 19.5q-112 0 -196 -10zM-704 1077q18 8 70 19q50 10 126 10q130 0 211 -30t121 -60q-30 84 -111.5 131t-189.5 47q-149 0 -227 -117z " />
<glyph unicode="&#xe36;" horiz-adv-x="0" d="M-774 1026q0 30 19 72t47.5 73.5t67 52t86.5 31.5t106 11q62 0 92 -16q-8 14 -8 42q0 34 14 59t40 39.5t60 14.5q51 0 84 -31.5t33 -83.5q-1 -90 -93 -108q36 -16 71.5 -73t35.5 -157q-122 45 -230.5 64.5t-228.5 19.5q-112 0 -196 -10zM-704 1077q18 8 70 19 q50 10 126 10q130 0 211 -30t121 -60q-30 84 -111.5 131t-189.5 47q-149 0 -227 -117zM-308 1288q0 -59 58 -59q56 0 56 55q0 60 -58 60q-56 0 -56 -56z" />
<glyph unicode="&#xe37;" horiz-adv-x="0" d="M-774 1026q0 40 33.5 100t106 100t161.5 40q78 0 129 -20v155h72v-187q9 0 49 -36q41 -35 47 -55q-14 65 -14 87v191h71v-449q-122 45 -230.5 64.5t-228.5 19.5q-112 0 -196 -10zM-704 1077q18 8 70 19q50 10 126 10q130 0 211 -30t121 -60q-30 84 -111.5 131t-189.5 47 q-149 0 -227 -117z" />
<glyph unicode="&#xe38;" horiz-adv-x="0" d="M-358 -190q0 35 16 61.5t44 42.5t64 16q32 0 58 -13t43 -41q17 -26 17 -66v-256h-72v102q0 27 19 56q5 8 9 14q-34 -34 -84 -35q-34 0 -59 15t-40 41.5t-15 62.5zM-293 -192q-1 -58 57 -58t58 58t-58 58t-57 -58z" />
<glyph unicode="&#xe39;" horiz-adv-x="0" d="M-536 -192q0 35 16 61.5t44 43t64 16.5q52 0 85 -33.5t33 -87.5v-185h106v303h72v-372h-302v69h52v31q0 28 19 56q5 8 9 14q-34 -34 -84 -34q-34 0 -59 15t-40 41.5t-15 61.5zM-471 -194q-1 -58 57 -57q58 -1 58 57t-58 58t-57 -58z" />
<glyph unicode="&#xe3a;" horiz-adv-x="0" d="M-280 -213q0 30 14 53.5t37 37.5t53 14t53 -14t37 -37.5t14 -53.5t-14 -53.5t-37 -37.5t-53 -14t-53 14t-37 38t-14 53z" />
<glyph unicode="&#xe3f;" horiz-adv-x="895" d="M116 0v960h290v131h66v-131h6q90 0 156.5 -28t103 -83t36.5 -131q0 -62 -30.5 -116t-106.5 -97q98 -32 140.5 -92.5t42.5 -142.5q0 -81 -33 -139.5t-103 -94.5q-68 -36 -166 -36h-46v-136h-66v136h-290zM208 78h198v378h-198v-378zM208 538h198v342h-198v-342zM472 78h36 q64 0 112.5 21t77 64t28.5 107q0 86 -58 136t-156 50h-40v-378zM472 538h18q60 0 103 21.5t67 60t24 92.5q0 75 -47 119t-165 48v-341z" />
<glyph unicode="&#xe40;" horiz-adv-x="413" d="M142 123v696h75v-581q31 18 65 18q33 0 60.5 -14.5t47.5 -45.5t20 -73q0 -57 -40 -95t-98 -38t-94 37.5t-36 95.5zM209 121q0 -63 63 -63q66 0 66 65q0 63 -62 63q-66 0 -67 -65z" />
<glyph unicode="&#xe41;" horiz-adv-x="770" d="M142 123v696h75v-581q31 18 65 18q33 0 60.5 -14.5t47.5 -45.5t20 -73q0 -57 -40 -95t-98 -38t-94 37.5t-36 95.5zM209 121q0 -63 63 -63q66 0 66 65q0 63 -62 63q-66 0 -67 -65zM498 123v696h75v-581q31 18 65 18q37 0 65.5 -17t45.5 -47t17 -69q0 -57 -40 -95t-98 -38 t-94 37.5t-36 95.5zM565 121q0 -63 63 -63q66 0 66 65q0 63 -62 63q-66 0 -67 -65z" />
<glyph unicode="&#xe42;" horiz-adv-x="497" d="M0 1080q48 234 250 233q74 0 129 -31.5t87 -86.5t32 -128v-23h-74q0 87 -48 143t-128 56q-64 0 -110 -43.5t-56 -91.5l219 -131v-737q26 18 62 18q57 0 91 -37t34 -98q0 -38 -15 -67.5t-46 -47.5t-75 -18q-120 0 -120 135v817zM293 123q-1 -67 61 -67q68 0 68 63 q0 67 -64 67q-65 0 -65 -63z" />
<glyph unicode="&#xe43;" horiz-adv-x="569" d="M0 1120q0 61 26.5 108.5t70 74t99.5 26.5q190 0 189 -252v-847q30 26 67 26q118 0 118 -133t-138 -133q-118 0 -118 129v948q0 191 -134 191q-72 0 -102 -64q14 12 48 12q32 0 56.5 -13t38 -36t13.5 -55q0 -50 -32 -84.5t-79 -34.5q-123 -1 -123 137zM68 1098 q0 -54 52 -54t52 50q0 54 -52 55t-52 -51zM379 116q1 -66 61 -65q66 0 66 68q0 67 -66 67q-60 0 -61 -70z" />
<glyph unicode="&#xe44;" horiz-adv-x="532" d="M2 1401h66q26 -102 26 -196q0 -55 -10 -142l49 71l139 208h76v-1100q26 16 57 16q123 0 123 -135q0 -133 -137 -133q-117 0 -117 129v1067q0 24 8 50l4 20q-2 -8 -18 -36l-26 -36l-146 -207h-74q0 22 3 82q3 82 3 134q0 86 -26 208zM336 121q0 -68 60 -68q68 0 67 68 q1 69 -61 69q-66 0 -66 -69z" />
<glyph unicode="&#xe45;" horiz-adv-x="710" d="M62 565v15q0 103 80 176q80 74 186 74q114 0 189 -72t75 -184v-1072h-76v1057q0 62 -24.5 106.5t-66 68.5t-97.5 24q-76 0 -134.5 -55t-58.5 -129v-9h-73z" />
<glyph unicode="&#xe46;" horiz-adv-x="770" d="M56 645q0 54 25 92.5t72 60t112 21.5t111 -22t56 -66q0 32 34 60t108 28h76v-1317h-76v1242h-18q-78 0 -86 -99l-2 -25h-66l-2 25q-8 107 -140 107q-28 0 -42 -6q100 -8 100 -118q0 -52 -36 -87t-89 -35q-38 0 -69.5 17t-49.5 48.5t-18 73.5zM126 639q0 -65 66 -65 q60 0 60 61q0 65 -66 65q-60 0 -60 -61z" />
<glyph unicode="&#xe47;" horiz-adv-x="0" d="M-593 1120q1 162 187 162q24 0 95 -7q38 -3 65 -3q44 0 77 14t59 45l48 -49q-74 -79 -182 -79q-32 -1 -78 5q-84 10 -106 10q-48 0 -74 -25t-26 -73q0 -52 50 -94q16 40 53 96q77 -110 135 -118q-24 27 -24 55t12 48.5t32.5 33t47.5 12.5q30 0 51.5 -13t34 -36.5 t12.5 -53.5q0 -106 -138 -106q-40 0 -86 28q-44 28 -66 54q-6 0 -40 -82q-140 54 -139 176zM-263 1057q0 -45 45 -45q41 0 41 42q0 46 -45 46q-41 0 -41 -43z" />
<glyph unicode="&#xe48;" horiz-adv-x="0" d="M-194 948v287h78v-287h-78z" />
<glyph unicode="&#xe49;" horiz-adv-x="0" d="M-514 1227q0 50 34 83.5t84 33.5q38 0 67 -19t46 -51t17 -74q0 -140 -130 -211q120 0 216 73q96 74 135 198l69 -27q-52 -159 -166 -230t-258 -71q-54 0 -92 8l-4 47q100 43 156 139q-18 -20 -60 -20q-34 0 -59 15.5t-40 42.5t-15 63zM-450 1222q0 -58 59 -58q57 0 57 56 q0 60 -60 60q-56 0 -56 -58z" />
<glyph unicode="&#xe4a;" horiz-adv-x="0" d="M-602 1116q0 168 126 168q72 0 118 -51q32 51 96 51q122 0 121 -125q0 -90 -51 -143q45 10 74.5 42.5t41 86.5t11.5 143h75q0 -118 -29 -192t-97 -108t-174 -34v42q88 48 88 140q0 76 -72 76q-50 0 -68 -48h-28q-22 50 -88 50q-92 0 -92 -92q0 -38 8 -47q12 65 77 65 q103 0 103 -94q0 -40 -29 -67t-69 -27q-34 0 -63 18t-54 57.5t-25 88.5zM-504 1050q0 -46 46 -46q40 0 40 40q0 48 -44 48q-42 0 -42 -42z" />
<glyph unicode="&#xe4b;" horiz-adv-x="0" d="M-336 1092v72h142v140h71v-140h141v-72h-141v-144h-71v144h-142z" />
<glyph unicode="&#xe4c;" horiz-adv-x="0" d="M-372 1059q0 177 247 184q143 3 221 67l35 -60q0 -18 -90 -44q-91 -26 -195 -26q-50 0 -69 -12q102 -14 102 -114q0 -36 -16 -64t-43.5 -44t-63.5 -16q-38 0 -67 16.5t-45 45t-16 67.5zM-305 1057q-1 -61 65 -61q54 0 54 56q0 62 -66 62q-53 0 -53 -57z" />
<glyph unicode="&#xe4d;" horiz-adv-x="0" d="M-424 1174q0 44 20.5 78t55 55t78.5 21t78 -21t55 -55t21 -78q0 -39 -18 -73t-54 -57.5t-82 -23.5q-44 0 -78.5 21t-55 55t-20.5 78zM-354 1174q0 -24 11 -43t30 -30t43 -11q22 0 40 10t31 29t13 45q0 24 -11.5 43t-30 30t-42.5 11t-43 -11t-30 -30t-11 -43z" />
<glyph unicode="&#xe4e;" horiz-adv-x="0" d="M-379 1082q0 60 59.5 101t129.5 44q-31 2 -59.5 26.5t-28.5 54.5q0 52 61 84t153 32q64 0 99 -17l-47 -31q-32 6 -50 6q-54 1 -101.5 -22t-47.5 -56q0 -28 41.5 -46.5t85.5 -18.5l-22 -47q-85 0 -142 -29t-57 -83q0 -48 82 -48q62 0 98 25l37 -29q-58 -47 -156 -47 q-136 1 -135 101z" />
<glyph unicode="&#xe4f;" horiz-adv-x="641" d="M66 374q0 72 34 129t91 91t129 34t129 -34t92 -91t35 -129q0 -106 -75 -180.5t-181 -74.5q-72 0 -129 34.5t-91 91.5t-34 129zM98 374q0 -92 65 -157t157 -65t157.5 64.5t65.5 157.5q0 62 -30 112t-79.5 80t-113.5 30q-56 0 -105 -26t-83 -77t-34 -119zM212 374 q0 44 32 76t76 32q30 0 55 -14t39.5 -39t14.5 -55q0 -28 -12.5 -52t-37.5 -40t-59 -16q-30 0 -54 14.5t-39 39t-15 54.5z" />
<glyph unicode="&#xe50;" horiz-adv-x="948" d="M125 272q0 134 100.5 218t247.5 84q104 0 183.5 -40.5t123.5 -106.5t44 -155q0 -133 -101 -213.5t-250 -80.5q-104 0 -183.5 39t-121.5 103q-43 64 -43 152zM200 272q0 -68 34 -117t96 -78.5t143 -29.5q120 0 198.5 61t78.5 164q0 104 -79 166t-198 62q-78 0 -140.5 -29 t-97.5 -79q-35 -52 -35 -120z" />
<glyph unicode="&#xe51;" horiz-adv-x="948" d="M151 274q0 90 46.5 156t115.5 103t153 37q146 0 245 -91t99 -233q0 -118 -60.5 -212.5t-166.5 -143.5l-39 52q88 41 142.5 124.5t54.5 174.5q0 76 -36.5 132.5t-97.5 90.5t-139 34q-71 0 -126 -31.5t-87 -83t-32 -119.5q0 -95 50.5 -151.5t137.5 -56.5l11 2 q-110 19 -111 125q0 53 38.5 93t94.5 40q61 0 99 -41t38 -105q0 -78 -55.5 -124t-145.5 -46q-108 0 -168.5 79t-60.5 195zM376 182q0 -68 68 -68t68 68t-68 68t-68 -68z" />
<glyph unicode="&#xe52;" horiz-adv-x="997" d="M72 774l55 56q32 -20 43.5 -31.5t21.5 -31t15.5 -45.5t5.5 -56v-596h617v313q0 103 -82 103q-76 0 -120 -103q-58 105 -146 105q-110 0 -124 -120q34 50 94 50q58 0 97 -37t39 -95q0 -57 -39 -94.5t-97 -37.5q-46 0 -79 23t-53.5 68t-20.5 105q0 62 25.5 108.5t65.5 72.5 t92 26q92 0 146 -84q35 84 130 84q64 0 103.5 -45t39.5 -121v-391h-759v631q0 80 -20 107t-50 36zM385 291q-1 -68 65 -68q64 -1 64 63q0 68 -66 68q-64 0 -63 -63z" />
<glyph unicode="&#xe53;" horiz-adv-x="997" d="M108 254q0 127 72 215t186 88q149 0 199 -131q40 131 158 131q155 0 155 -178v-379h-71v366q0 118 -92 118q-23 0 -40 -10t-32.5 -31t-27 -57t-11.5 -79v-307h-72v284q0 88 -45 145t-123 57q-82 0 -134 -73.5t-52 -166.5q0 -56 16 -102q18 49 28 60q32 44 98 44 q38 0 67 -17.5t46 -47t17 -67.5q0 -56 -37 -91t-93 -35q-94 0 -153 77.5t-59 186.5zM250 119q0 -66 66 -66q64 -1 63 63q1 66 -65 66q-64 0 -64 -63z" />
<glyph unicode="&#xe54;" horiz-adv-x="997" d="M123 278q0 54 17.5 98.5t52.5 79t78 56t85 30.5t98 9l228 -6q46 0 78 4.5t68 18.5t64 40t46 62l60 -44q-16 -34 -42.5 -61t-61 -45.5t-69.5 -29t-65.5 -14t-77.5 -3.5l-228 6q-55 0 -95.5 -10t-80.5 -34.5t-62 -62.5q-22 -40 -22 -88q0 -111 76 -165.5t230 -54.5 q-136 54 -136 196q0 42 19 75t50 52t71 19q135 0 135 -136q0 -120 -131 -120q-34 0 -54 16q32 -43 97 -69.5t135 -26.5h162v-70h-400q-105 0 -177.5 33t-110 94t-37.5 151zM440 270q0 -68 68 -67q68 -1 68 67t-68 68t-68 -68z" />
<glyph unicode="&#xe55;" horiz-adv-x="997" d="M122 274q0 84 70 162t180 96q-88 44 -89 138q0 62 44 104q43 43 105 43q68 0 111 -40.5t43 -106.5q0 -77 -68 -125q56 -7 116 -7q240 0 302 132l60 -44q-74 -156 -354 -155q-70 1 -189 15q-72 0 -129.5 -27t-94 -80t-36.5 -125q-1 -190 305 -190q-136 54 -135 196 q0 42 18.5 75t49.5 52t71 19q59 0 97.5 -38t38.5 -94q0 -124 -132 -124q-33 0 -53 16q32 -43 96.5 -69.5t134.5 -26.5h162v-70h-399q-152 0 -239 72q-86 70 -86 202zM351 667q-1 -68 81 -110q84 41 84 113q0 78 -84 78q-32 0 -56.5 -24t-24.5 -57zM439 270q-1 -68 67 -67 q68 -1 68 67t-68 68t-67 -68z" />
<glyph unicode="&#xe56;" horiz-adv-x="948" d="M100 774l56 56q54 -30 70 -72t16 -92v-172q120 58 250 57q336 1 336 -235q0 -140 -128 -233t-285 -93q-102 0 -178.5 45t-76.5 125q0 58 40.5 96.5t98.5 38.5q34 0 60.5 -14.5t45.5 -46.5t19 -78q0 -24 -10.5 -45t-28.5 -36t-40 -17q20 -10 30 -11q62 0 122.5 17.5 t124.5 54.5t99 87t35 108q0 80 -76 122.5t-190 42.5q-172 0 -320 -88v240q0 71 -16 101t-54 42zM232 168q0 -68 67 -68q59 0 59 60q0 68 -67 68q-59 0 -59 -60z" />
<glyph unicode="&#xe57;" horiz-adv-x="997" d="M96 309q0 69 30 126t76 89.5t105 32.5q101 -1 125 -103q34 102 121 103q58 0 95 -41q36 -40 36 -102v-344h39q25 0 45.5 12t29.5 33t9 51v500q0 31 5.5 56.5t15.5 45t22 31t43 31.5l53 -56q-18 0 -47 -34q-21 -31 -21 -109v-465q0 -86 -46.5 -126t-108.5 -40h-111v366 q0 110 -67 111q-73 -1 -91 -111h-46q-12 112 -113 113q-52 0 -89.5 -55.5t-37.5 -118.5q0 -89 37 -174q0 50 33.5 83.5t91.5 33.5q38 0 67 -17t46.5 -47t17.5 -68q1 -126 -139 -126q-106 0 -166 94t-60 225zM258 119q0 -66 66 -66q64 -1 63 63q1 66 -65 66q-64 0 -64 -63z " />
<glyph unicode="&#xe58;" horiz-adv-x="997" d="M122 278q0 55 18 99t52.5 78t77 56t84.5 31t100 9l228 -6q70 0 116.5 12t82.5 41q37 28 57 72l59 -44q-19 -40 -48.5 -69.5t-69 -49t-84.5 -27t-113 -7.5l-228 6q-71 0 -113.5 -14.5t-74.5 -38t-52 -59t-20 -91.5q0 -92 34 -142q52 126 120 126q37 0 84 -32 q82 -66 176 -135q0 34 6 66.5t38 61.5t80 29q56 0 96 -36.5t40 -92.5q0 -38 -17 -69.5t-52 -52.5t-83 -21q-20 0 -43 6t-48 18t-40 22t-114 84q-95 72 -125 72q-48 0 -105 -190q-119 120 -119 288zM667 116q-1 -66 65 -65q68 0 68 68q0 65 -65 65q-68 0 -68 -68z" />
<glyph unicode="&#xe59;" horiz-adv-x="997" d="M90 276q0 122 76.5 201.5t194.5 79.5q176 0 245 -166q0 76 35 122t99 46q78 1 124 -73l12 -19q26 14 38 37q12 24 12 66v114q0 48 -8 63t-34 31l48 52q39 -22 51 -46q15 -28 15 -92v-122q0 -51 -18 -90.5t-57 -68t-75 -34.5q-36 109 -106 109q-82 0 -82 -130 q0 -54 20 -100l58 -129q15 -34 27.5 -51.5t35.5 -29.5l12 -7l-35 -57q-12 0 -44 23t-54 75l-96 221q-80 185 -222 185q-87 0 -144 -62q-58 -60 -58 -152q0 -140 112 -200q-22 26 -22 65q0 56 38.5 94.5t94.5 38.5q38 0 67.5 -18t47.5 -48t18 -69q0 -65 -52.5 -105 t-123.5 -40q-70 0 -124.5 37t-89.5 103q-36 66 -36 146zM316 133q0 -65 63 -65q65 0 65 65t-65 65q-63 0 -63 -65z" />
<glyph unicode="&#xe5a;" horiz-adv-x="837" d="M39 688q0 58 37.5 100t93.5 42q35 0 64 -15t48 -44t19 -71q0 -56 -33.5 -91t-87.5 -35q60 -16 70 -17q69 0 123.5 30.5t94.5 89.5t58 142h76v-819h-76v555l27 151l-6 2q-23 -94 -98 -156t-168 -62q-68 0 -124.5 29t-87 71.5t-30.5 97.5zM108 696q0 -64 64 -63 q64 -1 64 63t-64 64t-64 -64zM696 0v815h72v-815h-72z" />
<glyph unicode="&#xe5b;" horiz-adv-x="1622" d="M49 377q0 113 41.5 195.5t116.5 130t176 47.5q104 0 217 -66l-6 -90q-98 72 -209 72q-115 0 -180 -84t-65 -220q0 -80 27 -140t83 -95t139 -35q44 0 82 13t70.5 38t56.5 58t112 213q32 -48 124 -152l57 76q25 38 63 78q16 0 46 -54l59 -106q23 32 73 102q38 54 52 54 q6 0 102 -133q48 -66 81 -66q95 0 120 92q13 36 31 113h74l-26 -110q-12 -56 -42 -94t-66 -56t-79 -18q-89 0 -143 80l-54 83l-64 -88q-38 -53 -62 -53q-16 0 -66 78l-42 65q-96 -139 -120 -139q-18 0 -62 53q-12 14 -40 49q-106 -260 -324 -260q-112 0 -190 43 t-120.5 125.5t-42.5 200.5z" />
<glyph unicode="&#x2000;" horiz-adv-x="919" />
<glyph unicode="&#x2001;" horiz-adv-x="1839" />
<glyph unicode="&#x2002;" horiz-adv-x="919" />
<glyph unicode="&#x2003;" horiz-adv-x="1839" />
<glyph unicode="&#x2004;" horiz-adv-x="613" />
<glyph unicode="&#x2005;" horiz-adv-x="459" />
<glyph unicode="&#x2006;" horiz-adv-x="306" />
<glyph unicode="&#x2007;" horiz-adv-x="306" />
<glyph unicode="&#x2008;" horiz-adv-x="229" />
<glyph unicode="&#x2009;" horiz-adv-x="367" />
<glyph unicode="&#x200a;" horiz-adv-x="102" />
<glyph unicode="&#x200b;" horiz-adv-x="0" />
<glyph unicode="&#x2010;" horiz-adv-x="447" d="M48 330v85h352v-85h-352z" />
<glyph unicode="&#x2011;" horiz-adv-x="447" d="M48 330v85h352v-85h-352z" />
<glyph unicode="&#x2012;" horiz-adv-x="447" d="M48 330v85h352v-85h-352z" />
<glyph unicode="&#x2013;" horiz-adv-x="671" d="M-8 306v60h687v-60h-687z" />
<glyph unicode="&#x2014;" horiz-adv-x="1342" d="M-8 306v60h1358v-60h-1358z" />
<glyph unicode="&#x2018;" horiz-adv-x="298" d="M88 653v129q0 122 86 178l33 -48q-59 -40 -59 -130h53v-129h-113z" />
<glyph unicode="&#x2019;" horiz-adv-x="298" d="M86 702q60 40 60 130h-54v128h113v-128q0 -120 -86 -179z" />
<glyph unicode="&#x201a;" horiz-adv-x="309" d="M98 -160q68 40 68 160h-65v108h97v-95q0 -142 -89 -192z" />
<glyph unicode="&#x201c;" horiz-adv-x="522" d="M85 653v129q0 122 86 178l33 -48q-60 -40 -60 -130h54v-129h-113zM313 653v129q0 122 86 178l33 -48q-60 -40 -60 -130h54v-129h-113z" />
<glyph unicode="&#x201d;" horiz-adv-x="522" d="M85 702q60 40 60 130h-54v128h113v-128q0 -120 -86 -179zM313 702q60 40 60 130h-54v128h113v-128q0 -122 -86 -179z" />
<glyph unicode="&#x201e;" horiz-adv-x="463" d="M73 -160q67 38 67 160h-64v108h97v-95q0 -89 -22.5 -129t-66.5 -63zM283 -160q68 40 68 160h-65v108h97v-95q0 -145 -88 -192z" />
<glyph unicode="&#x2020;" horiz-adv-x="773" d="M67 588v74h270v276h89v-276h272v-74h-272v-823h-89v823h-270z" />
<glyph unicode="&#x2021;" horiz-adv-x="773" d="M67 16v76h272v526h-272v75h272v254h89v-254h273v-75h-273v-526h273v-76h-273v-251h-89v251h-272z" />
<glyph unicode="&#x2022;" horiz-adv-x="671" d="M172 469q0 68 48 116t116 48q47 0 83.5 -22.5t58.5 -59t22 -82.5t-22 -82.5t-59 -58.5t-83 -22t-83 22t-59 58t-22 83z" />
<glyph unicode="&#x2026;" horiz-adv-x="1342" d="M167 0v127h113v-127h-113zM614 0v127h114v-127h-114zM1062 0v127h114v-127h-114z" />
<glyph unicode="&#x202f;" horiz-adv-x="367" />
<glyph unicode="&#x2030;" horiz-adv-x="1390" d="M42 729q0 241 177 241q179 0 179 -238q0 -252 -177 -252q-179 0 -179 249zM109 723q0 -192 114 -192q108 0 108 194q0 195 -110 195q-112 0 -112 -197zM242 -37l395 1015h53l-395 -1015h-53zM535 211q0 241 176 241q179 0 179 -238q0 -251 -177 -251q-178 0 -178 248z M601 206q0 -192 114 -192q109 0 109 193q0 195 -111 195q-112 0 -112 -196zM992 211q0 241 177 241q179 0 179 -238q0 -251 -177 -251q-179 0 -179 248zM1059 206q0 -192 114 -192q108 0 108 193q0 195 -110 195q-112 0 -112 -196z" />
<glyph unicode="&#x2039;" horiz-adv-x="463" d="M83 341l202 293h62l-169 -293l169 -292h-62z" />
<glyph unicode="&#x203a;" horiz-adv-x="463" d="M116 49l170 294l-170 291h62l195 -287l-195 -298h-62z" />
<glyph unicode="&#x205f;" horiz-adv-x="459" />
<glyph unicode="&#x20ac;" d="M-7 348l18 67h72l-5 69v36h-85l18 68h76q34 180 147 279q116 102 294 102q120 -1 202 -53l-26 -84q-80 66 -180 66q-138 0 -239 -98q-95 -90 -109 -212h444l-18 -68h-436v-36q0 -15 3 -69h415l-18 -67h-386q54 -296 335 -296q121 0 189 64v-94q-80 -38 -178 -38 q-294 0 -398 244q-20 50 -36 120h-99z" />
<glyph unicode="&#x2122;" horiz-adv-x="1390" d="M170 913v48h418v-48h-181v-471h-58v471h-179zM683 442v519h106l154 -482l146 482h104v-519h-50v454h-33l-139 -454h-58l-145 454h-34v-454h-51z" />
<glyph unicode="&#x25cc;" horiz-adv-x="1020" d="M75 477q0 43 45 43q43 0 43 -43t-43 -43q-45 0 -45 43zM108 326q0 44 42 44t42 -44q0 -43 -42 -43t-42 43zM108 628q0 42 42 43q42 -1 42 -43q0 -44 -40 -44q-44 0 -44 44zM192 195q0 45 44 45q42 0 42 -45q0 -43 -42 -43q-44 0 -44 43zM192 756q0 44 44 44q42 0 42 -44 q0 -40 -42 -40q-44 0 -44 40zM322 110q0 44 42 44q44 0 44 -41q0 -44 -44 -44q-42 1 -42 41zM322 842q0 45 42 45q44 0 44 -45q0 -42 -44 -42q-42 0 -42 42zM472 82q0 42 43 42t43 -42q0 -46 -43 -46t-43 46zM472 875q0 43 43 43t43 -43q0 -45 -43 -45t-43 45zM624 842 q0 45 45 45q41 0 41 -45q0 -42 -41 -42q-45 0 -45 42zM626 110q0 44 43 44q41 0 41 -44q0 -40 -41 -41q-43 1 -43 41zM752 756q0 44 46 44q40 0 40 -44q0 -40 -40 -40q-46 0 -46 40zM754 195q0 45 44 45q40 0 40 -45q0 -43 -40 -43q-44 0 -44 43zM838 326q0 44 42 44 q44 0 45 -44q-1 -43 -45 -43q-42 0 -42 43zM838 628q0 42 44 43q42 -1 43 -43q-1 -44 -45 -44q-42 0 -42 44zM870 477q0 43 45 43q41 0 41 -43t-41 -43q-45 0 -45 43z" />
<glyph unicode="&#x25fc;" horiz-adv-x="695" d="M0 0v695h695v-695h-695z" />
<glyph horiz-adv-x="1536" d="M256 0v1280h1024v-1280h-1024zM288 32h960v1216h-960v-1216z" />
<glyph horiz-adv-x="0" d="M-614 0v1024h614v-1024h-614z" />
<glyph horiz-adv-x="782" d="M96 576l2 20q9 92 83.5 158.5t201.5 66.5q77 0 179 -27q44 -12 58 -12q6 2 15 86l71 -10q-14 -116 -26 -137t-45 -21q-20 0 -122 25q-101 25 -137 25q-160 0 -206 -117q57 31 164 31q126 0 225 -33t99 -95l-84 -536h-72l-90 258q-2 16 -6 35q0 6 2 41q-36 -70 -116 -70 q-31 0 -57.5 15t-47.5 48t-21 77q0 55 38 93.5t94 38.5q96 0 128 -96l84 -258l16 -88h6l6 136l44 294q0 33 -95 51.5t-190 18.5q-105 0 -201 -18zM236 400q0 -64 63 -64q26 0 44.5 19t18.5 45q0 64 -63 63q-26 0 -44.5 -18.5t-18.5 -44.5z" />
<glyph horiz-adv-x="0" d="M-926 1026q0 31 20 73.5t48 73.5t65 51.5t84 31t103 10.5q78 0 138 -26t104 -65t69 -88.5t25 -134.5q-122 45 -231 64.5t-228 19.5q-113 0 -197 -10zM-856 1077q18 8 70 18.5t127 10.5q130 0 210.5 -30t120.5 -60q-30 84 -111 131t-189 47q-150 0 -228 -117z" />
<glyph horiz-adv-x="0" d="M-926 1026q0 42 36 104.5t107 99t183 36.5q80 0 157 -38q77 -40 119 -104q-18 36 -18 86v191h72v-449q-122 45 -231 64.5t-228 19.5q-113 0 -197 -10zM-856 1077q18 8 70 18.5t127 10.5q130 0 210.5 -30t120.5 -60q-30 84 -111 131t-189 47q-150 0 -228 -117z" />
<glyph horiz-adv-x="0" d="M-926 1026q0 30 19 72t48 73.5t67 52t86 31.5t106 11q61 0 92 -16q-8 14 -8 42q0 34 14 59t40 39.5t60 14.5q51 0 84.5 -31.5t33.5 -83.5q0 -90 -93 -108q32 -15 69.5 -71.5t37.5 -158.5q-122 45 -231 64.5t-228 19.5q-113 0 -197 -10zM-856 1077q18 8 70 18.5t127 10.5 q130 0 210.5 -30t120.5 -60q-30 84 -111 131t-189 47q-150 0 -228 -117zM-459 1288q-1 -59 57 -59q56 0 56 55q0 60 -58 60q-56 0 -55 -56z" />
<glyph horiz-adv-x="0" d="M-926 1026q0 40 34 100t106 100q74 40 162 40q78 0 128 -20v155h72v-187q9 0 49.5 -35.5t46.5 -55.5q-14 65 -14 87v191h72v-449q-122 45 -231 64.5t-228 19.5q-113 0 -197 -10zM-856 1077q18 8 70 18.5t127 10.5q130 0 210.5 -30t120.5 -60q-30 84 -111 131t-189 47 q-150 0 -228 -117z" />
<glyph horiz-adv-x="0" d="M-346 948v287h76v-287h-76z" />
<glyph horiz-adv-x="0" d="M-666 1227q0 50 34.5 83.5t84.5 33.5q58 0 93 -42q36 -40 36 -102q0 -140 -129 -211q118 0 215 73q96 74 136 198l69 -27q-52 -159 -165.5 -230t-258.5 -71q-54 0 -92 8l-4 47q99 43 155 139q-18 -20 -59 -20q-30 0 -54.5 13t-42.5 40.5t-18 67.5zM-602 1222 q0 -58 60 -58q56 0 56 56q0 60 -59 60q-57 0 -57 -58z" />
<glyph horiz-adv-x="0" d="M-868 1116q0 168 125 168q73 0 119 -51q31 51 95 51q121 0 121 -125q0 -90 -50 -143q58 12 92 67.5t34 204.5h76q0 -183 -70 -258.5t-231 -75.5v42q88 48 88 140q1 76 -71 76q-50 0 -68 -48h-28q-22 50 -88 50q-92 0 -93 -92q0 -38 8 -47q11 65 77 65q104 0 104 -94 q0 -24 -11 -44t-34 -35t-54 -15q-33 0 -62 18t-54 57.5t-25 88.5zM-770 1050q0 -46 45 -46q41 0 41 40q0 48 -44 48q-42 0 -42 -42z" />
<glyph horiz-adv-x="0" d="M-586 1092v72h142v140h71v-140h143v-72h-143v-144h-71v144h-142z" />
<glyph horiz-adv-x="0" d="M-522 1059q0 177 248 184q144 3 221 67l35 -60q0 -18 -90 -44t-195 -26q-49 0 -69 -12q102 -14 102 -114q0 -37 -16.5 -64.5t-43.5 -43.5t-63 -16q-34 0 -62.5 14t-47.5 44t-19 71zM-454 1057q0 -61 65 -61q53 0 53 56q0 62 -66 62q-52 0 -52 -57z" />
<glyph horiz-adv-x="1245" d="M62 674q44 68 140.5 112t190.5 44q96 0 166 -29t105.5 -78.5t35.5 -120.5v-526h350v743h76v-819h-502v598q0 76 -67.5 119t-165.5 43q-120 0 -211 -66q81 -22 164 -78q-78 -34 -111 -68t-33 -87v-231q28 26 64 26q57 0 95.5 -38t38.5 -95q0 -39 -18 -68t-49 -47t-71 -18 q-39 0 -68.5 17t-46 46.5t-16.5 69.5v354q1 99 103 135q-52 34 -170 62zM196 119q0 -61 63 -61q69 0 69 67q0 61 -62 61q-70 0 -70 -67z" />
<glyph horiz-adv-x="0" d="M-617 1097q0 34 14.5 63t43.5 48t67 19q49 0 87 -35.5t38 -83.5q0 -54 -37 -86q18 0 47.5 10.5t75.5 34t99 69.5t118 122l58 -50q-196 -254 -424 -254q-56 0 -100 20t-65.5 51t-21.5 72zM-552 1102q0 -62 60 -62q58 0 58 58q0 62 -60 61q-58 0 -58 -57z" />
<glyph horiz-adv-x="0" d="M-535 1126q0 44 20.5 78.5t55.5 55t78 20.5q44 0 78.5 -21t55 -55t20.5 -78q0 -39 -17.5 -72.5t-53.5 -57.5t-83 -24q-39 0 -73 18t-57.5 54t-23.5 82zM-465 1126q0 -24 11.5 -42.5t30 -30t42.5 -11.5q22 0 40.5 10t31 29t12.5 45q0 22 -9.5 40.5t-29.5 31t-45 12.5 q-24 0 -42.5 -11t-30 -30t-11.5 -43z" />
<glyph horiz-adv-x="0" d="M-740 1120q0 162 187 162q23 0 95 -7q38 -3 66 -3q44 0 76.5 14t59.5 45l47 -49q-74 -79 -181 -79q-32 -1 -78 5q-84 10 -107 10q-48 0 -73.5 -25t-25.5 -73q0 -52 50 -94q16 40 52 96q78 -110 136 -118q-25 27 -25 55q0 40 26.5 67t66.5 27q30 0 51 -13t34 -36.5 t13 -53.5q0 -106 -138 -106q-40 0 -86 28t-67 54q-6 0 -39 -82q-140 54 -140 176zM-410 1057q0 -45 46 -45q40 0 40 42q0 46 -44 46q-42 0 -42 -43z" />
<glyph horiz-adv-x="0" d="M-346 1483v287h76v-287h-76z" />
<glyph horiz-adv-x="0" d="M-635 1724q0 30 14.5 53.5t38.5 37.5t54 14t54.5 -13.5t43 -43.5t18.5 -72q0 -128 -116 -190q109 0 192.5 65t122.5 180l61 -27q-50 -146 -155 -208t-235 -62q-40 0 -72 6l-4 44q93 46 139 128q-15 -22 -51 -22q-28 0 -51 12t-39 38q-15 24 -15 60zM-580 1720 q0 -54 54 -53q52 -1 51 53q1 52 -51 52q-54 0 -54 -52z" />
<glyph horiz-adv-x="0" d="M-703 1626q0 60 32 105q31 45 87 45q60 0 102 -48q30 48 80 48t82.5 -34t32.5 -88q1 -64 -45 -120q56 16 85 66t29 180h66q0 -108 -25 -174t-87 -97q-60 -31 -158 -31v38q78 42 78 126q0 70 -64 70q-46 0 -60 -45h-24q-20 47 -83 47q-22 0 -38.5 -8.5t-29.5 -28 t-13 -47.5q0 -34 8 -41q10 59 72 59q25 0 45.5 -12t32.5 -31t12 -43q0 -37 -25 -61.5t-63 -24.5q-35 0 -63 20t-47 54t-19 76zM-613 1566q0 -42 43 -42q33 0 33 34q0 44 -43 44q-33 0 -33 -36z" />
<glyph horiz-adv-x="0" d="M-488 1626v72h142v141h72v-141h143v-72h-143v-143h-72v143h-142z" />
<glyph horiz-adv-x="0" d="M-498 1422q0 81 62 123t160 44q123 1 196 59l31 -54q-74 -64 -254 -64q-41 0 -61 -10q92 -12 92 -103q0 -32 -15 -57.5t-39.5 -40.5t-56.5 -15q-34 0 -59.5 15t-40.5 41t-15 62zM-438 1422q0 -60 56 -60q52 0 52 49q0 59 -59 59q-49 0 -49 -48z" />
<glyph horiz-adv-x="205" />
<glyph horiz-adv-x="450" />
<glyph horiz-adv-x="450" d="M33 -62q0 36 6.5 47t44.5 11h289q41 0 47 -11t6 -47v-82q0 -60 -27 -59q-12 -1 -24 49q-5 20 -18 42t-49 26t-75 4q-51 0 -82 -5t-43.5 -15.5t-25.5 -56.5q-12 -44 -28 -44q-22 -1 -21 59v82z" />
<glyph horiz-adv-x="0" d="M-194 1483v287h78v-287h-78z" />
<glyph horiz-adv-x="0" d="M-484 1724q0 44 31 74.5t76 30.5q51 0 84 -37.5t33 -91.5q0 -128 -117 -190q108 0 192.5 65t122.5 180l62 -27q-50 -146 -155 -208t-236 -62q-40 0 -72 6l-4 44q93 46 139 128q-16 -22 -51 -22q-47 0 -76 32t-29 78zM-428 1720q0 -54 53 -53q51 -1 51 53q0 52 -51 52 q-53 0 -53 -52z" />
<glyph horiz-adv-x="0" d="M-552 1626q0 60 32 105t88 45q60 0 102 -48q30 48 79 48q32 0 58.5 -15t41.5 -42t15 -65q0 -64 -45 -120q56 16 85.5 66t29.5 180h66q0 -112 -27 -177t-87 -95t-157 -30v38q78 42 78 126q1 70 -63 70q-46 0 -60 -45h-24q-20 47 -84 47q-22 0 -38 -8.5t-29 -28t-13 -47.5 q0 -34 8 -41q9 59 71 59q36 0 63 -24q28 -26 28 -62q0 -37 -26 -62q-24 -24 -62 -24q-35 0 -63.5 20t-47.5 54t-19 76zM-462 1566q0 -42 44 -42q32 0 32 34q0 44 -42 44q-34 0 -34 -36z" />
<glyph horiz-adv-x="0" d="M-336 1626v72h142v141h71v-141h141v-72h-141v-143h-71v143h-142z" />
<glyph horiz-adv-x="0" d="M-346 1422q0 78 60.5 121.5t160.5 45.5q123 1 197 59l30 -54q-74 -64 -254 -64q-42 0 -61 -10q92 -12 92 -103q0 -32 -14.5 -57.5t-39.5 -40.5t-57 -15q-30 0 -55 13t-42 40t-17 65zM-287 1422q1 -60 57 -60q52 0 52 49q0 59 -60 59q-50 0 -49 -48z" />
<glyph horiz-adv-x="0" d="M-358 -700q0 52 36 86t88 34t85 -33t33 -87v-300h-72v146q0 27 19 56q5 8 9 14q-34 -34 -84 -35q-34 0 -59 15t-40 41.5t-15 62.5zM-293 -702q-1 -58 57 -58t58 58t-58 58t-57 -58z" />
<glyph horiz-adv-x="0" d="M-536 -704q0 52 36 87t88 35t85 -34t33 -88v-226h106v346h72v-416h-302v70h52v73q0 27 19 56q5 7 9 13q-34 -34 -84 -34t-82 34t-32 84zM-471 -705q-1 -57 57 -57t58 57t-58 57t-57 -57z" />
<glyph horiz-adv-x="0" d="M-280 -600q0 30 14 53.5t37 37.5t53 14q26 0 49 -12t39 -36.5t16 -56.5q0 -30 -14 -53t-37 -37t-53 -14t-53 14t-37 38q-14 22 -14 52z" />
<glyph d="M112 403q0 114 16.5 193.5t49 130.5t81.5 74.5t114 24.5q261 0 261 -420t-261 -420q-134 0 -197.5 104t-63.5 313zM186 401q0 -85 9 -151t31 -112t58 -70t92 -24q186 0 186 362q0 364 -188 364q-48 0 -83.5 -20t-59 -64t-34.5 -114t-11 -171z" />
<glyph d="M162 558v62q176 97 232 206h48v-826h-70v690q-94 -88 -210 -132z" />
<glyph d="M106 0q4 42 18 79q14 38 67 97.5t152 135.5q35 27 61 48q28 22 46 38q38 34 64 66q28 34 39.5 65t11.5 67q0 38 -13.5 69.5t-37 54.5t-57 35.5t-73.5 12.5q-156 0 -186 -180l-74 10q6 53 27 95.5t55 72t80 45t102 15.5q54 0 100 -17t80 -47t53 -72t19 -92q0 -60 -28 -114 q-28 -53 -76 -98q-25 -23 -64.5 -55t-94.5 -74q-132 -101 -179 -191h442v-66h-534z" />
<glyph d="M110 209l69 11q41 -176 189 -176q42 0 77 14.5t60 40.5t39.5 62.5t14.5 79.5q0 39 -13.5 70.5t-37.5 54t-57 34.5t-73 12q-28 0 -74 -10l7 62q61 0 102 12.5t65 34t34 49.5t10 61q0 32 -11.5 59.5t-32.5 46.5t-49.5 30t-62.5 11q-132 0 -174 -162l-72 13q52 207 246 207 q52 0 94.5 -15t73 -42t47 -66t16.5 -87q1 -116 -121 -172q160 -42 160 -201q0 -58 -19.5 -105t-55 -80.5t-84.5 -52.5t-109 -19q-212 0 -258 223z" />
<glyph d="M90 206v62l398 558h54v-558h114v-62h-114v-206h-68v206h-384zM159 268h315v443z" />
<glyph d="M108 204l71 8q35 -168 191 -168q34 0 68.5 13.5t62 41t45.5 68.5t18 98q0 44 -14 81.5t-39.5 65t-60 43t-76.5 15.5q-98 0 -190 -91l-60 8l80 428h396v-65h-344l-52 -282q92 64 181 64q54 0 100 -20.5t80 -56t53.5 -83t19.5 -101.5q0 -58 -20 -109.5t-57 -90.5t-89 -62 t-114 -23q-196 0 -250 218z" />
<glyph d="M106 384q0 146 31 240q30 94 98 148q65 54 163 54q182 0 224 -192l-70 -7q-36 141 -156 141q-44 0 -79 -17.5t-60.5 -48t-42 -72.5t-24.5 -90q-4 -26 -7 -60t-5 -78q90 120 221 119q53 0 97 -19t76 -53t50 -81q18 -46 18 -102q0 -62 -19 -113.5t-53.5 -88.5t-82 -57.5 t-103.5 -20.5q-138 0 -210 106q-18 27 -30 57.5t-20 64.5q-16 68 -16 170zM195 266q0 -44 14 -84t39 -71t59.5 -49t76.5 -18q40 0 73 17t57 46t37 68t13 83t-13 80.5t-36.5 63t-56 41t-72.5 14.5t-75 -14.5t-61 -39.5t-40 -61q-15 -34 -15 -76z" />
<glyph d="M112 752v63h522v-45q-156 -180 -231 -366q-75 -185 -91 -404h-76q6 96 24 184t49 172q15 42 34 83.5t43 82.5q23 41 62.5 98.5t95.5 131.5h-432z" />
<glyph d="M107 238q1 74 35 126q34 50 116 80q-118 54 -118 170q0 46 17.5 85t48.5 67t73.5 44t92.5 16q51 0 94 -16t74 -44t48.5 -67t17.5 -85q0 -116 -118 -170q151 -52 151 -206q0 -62 -22 -109.5t-58.5 -79t-84.5 -47.5q-50 -16 -102 -16q-78 0 -136 29t-93 90q-36 60 -36 133z M179 232q0 -43 13.5 -77.5t39.5 -59t62 -37.5q34 -14 78 -14t80 13.5t61 38t39 59t14 77.5q0 41 -14 74.5t-39 56.5t-61 35t-80 12q-45 0 -80.5 -12t-60.5 -35t-38.5 -56.5t-13.5 -74.5zM211 613q0 -32 12.5 -58.5t34.5 -45.5t51 -29t63 -10t63.5 10t51 29t34.5 45.5 t13 58.5q0 34 -12 62.5t-33.5 49.5t-51 32t-65.5 11t-65 -11.5t-51 -32t-33.5 -49.5t-11.5 -62z" />
<glyph d="M106 545q0 61 19.5 112.5t54 89t81.5 58.5t104 21q85 0 145 -40t94 -125q36 -85 36 -233q0 -146 -32 -240q-16 -48 -40 -85t-57 -63q-67 -54 -163 -54q-182 0 -223 190l70 9q35 -141 155 -141q34 0 64 12t55 33t43 49q18 30 28 62q10 34 17.5 86t11.5 124 q-90 -120 -222 -120q-52 0 -96.5 19.5t-76.5 53.5t-50 80.5t-18 101.5zM183 554q0 -44 12.5 -81t35.5 -63t56 -41t73 -15q41 0 76.5 15t61 40.5t40 60.5t14.5 76q0 44 -14 84t-39 71t-60 49t-77 18q-40 0 -73 -17t-56.5 -46t-36.5 -68t-13 -83z" />
<glyph horiz-adv-x="0" d="M-570 1608q0 162 187 161q6 0 24.5 -1.5t41.5 -3.5t48 -4t47 -2q44 0 76.5 14.5t59.5 45.5l47 -49q-74 -79 -181 -79q-24 0 -54 2.5t-57.5 5t-48 5.5t-25.5 3q-48 0 -73 -26q-26 -26 -26 -74q0 -52 50 -93q8 20 21 44q13 25 31 53q78 -110 136 -120q-25 28 -25 56 q0 20 7 37.5t19.5 30t29.5 19.5t37 7q22 0 40 -7.5t31 -21t20 -32.5t7 -42q0 -106 -138 -106q-20 0 -43 8.5t-44 20.5t-38.5 26t-27.5 27q-6 0 -39 -82q-140 55 -140 177zM-240 1544q0 -46 46 -46q40 0 40 44q0 46 -44 45q-42 0 -42 -43z" />
<glyph horiz-adv-x="0" d="M-203 1465v287h78v-287h-78z" />
<glyph horiz-adv-x="0" d="M-438 1716q0 22 9 41.5t23 33.5t33.5 22t41.5 8q25 0 46.5 -10t37 -27.5t24.5 -41t9 -50.5q0 -128 -117 -190q109 0 193 65t122 180l62 -27q-50 -146 -155 -208q-106 -62 -236 -62q-41 0 -72 6l-4 44q93 46 139 128q-16 -22 -51 -22q-24 0 -43.5 9t-32.5 24t-21 35t-8 42 zM-382 1712q0 -54 53 -53q51 -1 51 53q0 52 -51 52q-53 0 -53 -52z" />
<glyph horiz-adv-x="0" d="M-556 1600q0 30 8 56.5t24 47t38 33t50 12.5q60 0 101 -47q29 47 79 47q24 0 45 -8.5t37 -24t25 -38t9 -50.5q0 -64 -46 -120q56 16 86 66t30 179h65q0 -81 -14.5 -138t-46.5 -93.5t-84 -53.5q-52 -16 -126 -16v37q78 42 78 127q0 70 -63 70q-45 0 -59 -46h-25 q-20 48 -83 48q-14 0 -28.5 -5t-26 -16t-19.5 -27q-7 -14 -7 -36q1 -34 9 -42q8 60 70 60q17 0 33.5 -6.5t29.5 -18t20.5 -27.5t7.5 -34t-6.5 -34t-18.5 -27.5t-28 -18t-35 -6.5q-26 0 -49 12t-41 32t-28.5 47t-10.5 59zM-466 1540q0 -43 43 -43q33 0 33 35q0 43 -43 43 q-33 0 -33 -35z" />
<glyph horiz-adv-x="0" d="M-336 1608v72h142v141h71v-141h141v-72h-141v-143h-71v143h-142z" />
<glyph horiz-adv-x="0" d="M-340 1568q0 40 16 70.5t45 52t70 32.5t90 13q123 2 197 59l30 -55q-74 -64 -254 -64q-43 0 -61 -10q92 -12 92 -102q0 -25 -8.5 -46t-24 -35.5t-36 -23t-44.5 -8.5q-22 0 -42 7.5t-36 22.5t-25 37t-9 50zM-281 1568q1 -60 57 -60q52 0 52 50q0 60 -60 59q-50 0 -49 -49z " />
<glyph horiz-adv-x="0" d="M-308 1604q0 32 12 60.5t33 49t49 32.5t60 12t60.5 -12t49 -32.5t32.5 -49t12 -60.5q0 -28 -10 -55.5t-30 -49t-48 -35.5q-30 -14 -66 -14q-32 0 -60 12t-49 33t-33 49t-12 60zM-238 1604q0 -18 7 -33t18 -26t27 -18q14 -7 32 -7q16 0 31 6t27 17t19 26t7 35 q0 18 -6 33.5t-17.5 27t-27 17.5t-33.5 6t-33 -6t-26 -17.5t-18 -27t-7 -33.5z" />
<glyph horiz-adv-x="0" d="M-316 1509q0 27 15 50.5t39 40.5q26 18 56 29q30 9 58 11q-12 0 -26 8q-14 6 -25 16t-18 23t-7 26q0 24 14.5 43.5t40 33t61.5 20.5q34 8 76 8q58 0 89 -15l-43 -27q-16 3 -28 4t-20 1q-23 0 -46 -5.5t-41.5 -15.5t-30.5 -23t-12 -27q0 -13 10.5 -23.5t27 -18.5 t36.5 -12.5t40 -4.5l-20 -42q-38 0 -71 -6.5t-57 -19.5t-38 -32t-14 -43q0 -44 74 -44q56 0 89 23l33 -26q-52 -43 -140 -43q-122 0 -122 91z" />
</font>
</defs>
</svg>
